Неспящие в Сиэтле / Sleepless In Seattle (Нора Эфрон / Nora Ephron) [1993 г., Мелодрама / Комедия, HDTVRip, 720p] DUB + AVO (Михалев) + original eng + rus eng sub

Ответить на тему
 
Автор
Сообщение

awk05 ®

Пол:

Стаж: 5 лет 3 месяца

Сообщений: 1352

Репутация: 275 [+] [-]

Откуда: Западная Украина Ривне

Пост 31-Янв-2014 17:37

[Цитировать] 

--Неспящие в Сиэтле / Sleepless In Seattle-- Год выпуска: 1993
Страна: США
Жанр: Мелодрама / Комедия
Продолжительность: 01:45:18
Перевод: Дубляж, профессиональный (одноголосый войсовер, Михалёв)
Русские субтитры: есть, SRT
Английские субтитры: есть, SRT--
Режиссер: Нора Эфрон / Nora Ephron--
В ролях: Том Хэнкс (Sam Baldwin), Мэг Райан (Annie Reed), Росс Мэлинджер (Jonah Baldwin), Рита Уилсон (Suzy), Билл Пуллман (Walter), Виктор Гарбер (Greg), Том Риис Фаррелл (Rob), Кэри Лоуэлл (Maggie Baldwin), Роб Райнер (Jay), Барбара Гэррик (Victoria)--
Описание: У архитектора Сэма (Том Хэнкс) умирает любимая жена. Решив кардинально сменить обстановку, дабы ничто не напоминало ему о ней, причиняя боль, Сэм с сыном Джоной переезжают из Чикаго в Сиэттл. Однако оба они всё равно сильно скучают: Сэм - по жене, Джона - по матери. Однажды, накануне Рождества, Джона звонит на радиостанцию и рассказывает историю волшебной любви его отца и матери, и как сильно они скучают по ней. Среди тысяч радиослушателей на эту историю обращает внимание журналистка из Балтимора Энни Рид (Мэг Райан). Романтик до глубины души, Энни, несмотря на помолвку, решает написать Сэму.
Фильм, успевший стать классикой жанра. Первый раз я его посмотрел ещё в детстве, пересматривал больше 20 раз и навсегда влюбился в него. Перевод Михалёва, ставший визитной карточкой для фильма в нашей семье, хоть и не претендовал на абсолютную адекватность, но запал в душу. Теперь есть возможность смотреть картину в высоком разрешении с любимым переводом.--

Качество: HDTVRip
Формат: MKV
Видео кодек: H.264
Аудио кодек: AC3
Видео: 1280x720 (2.35:1), 23,976 кадра/сек, 5498 Кбит/сек, 0.249 Бит/(Пиксели*Кадры)
Аудио 1: 2 канала Front: L R, 48,0 КГц, 192 Кбит/сек, 16 бит [RUS] дубляж
Аудио 2: 2 канала Front: L R, 48,0 КГц, 192 Кбит/сек, 16 бит [RUS] войсовер Михалёва
Аудио 3: 2 канала Front: L R, 48,0 КГц, 448 Кбит/сек, 16 бит [ENG]--
--

MediaInfo

Общее
Уникальный идентификатор : 239317329579219732836913891022931826640 (0xB40AD753F375C994A0F8A5EA005517D0)
Полное имя : D:\раздачи\Sleepless_In_Seattle_1993_720p_x264.mkv
Формат : Matroska
Версия формата : Version 2
Размер файла : 4,66 Гбайт
Продолжительность : 1 ч. 45 м.
Общий поток : 6332 Кбит/сек
Название фильма : Sleepless_In_Seattle_1993_720p_x264
Дата кодирования : UTC 2009-12-28 02:19:09
Программа кодирования : mkvmerge v3.0.0 ('Hang up your Hang-Ups') built on Dec 12 2009 15:20:35
Библиотека кодирования : libebml v0.7.9 + libmatroska v0.8.1
Видео
Идентификатор : 1
Формат : AVC
Формат/Информация : Advanced Video Codec
Профиль формата : High@L4.1
Параметр CABAC формата : Да
Параметр ReFrames формата : 9 кадров
Режим смешивания : Container profile=Unknown@0.0
Идентификатор кодека : V_MPEG4/ISO/AVC
Продолжительность : 1 ч. 45 м.
Битрейт : 5498 Кбит/сек
Ширина : 1280 пикселей
Высота : 720 пикселей
Соотношение сторон : 16:9
Режим частоты кадров : Постоянный
Частота кадров : 23,976 кадра/сек
Цветовое пространство : YUV
Субдискретизация насыщенности : 4:2:0
Битовая глубина : 8 бит
Тип развёртки : Прогрессивная
Бит/(Пиксели*Кадры) : 0.249
Размер потока : 3,95 Гбайт (85%)
Заголовок : Sleepless In Seattle 720p
Библиотека кодирования : x264 core 68 r1183M f21daff
Настройки программы : cabac=1 / ref=9 / deblock=1:-3:-3 / analyse=0x3:0x113 / me=umh / subme=9 / psy_rd=0.8:0.8 / mixed_ref=1 / me_range=32 / chroma_me=1 / trellis=2 / 8x8dct=1 / cqm=0 / deadzone=21,11 / chroma_qp_offset=-4 / threads=6 / nr=0 / decimate=1 / mbaff=0 / bframes=4 / b_pyramid=0 / b_adapt=2 / b_bias=0 / direct=3 / wpredb=1 / keyint=250 / keyint_min=25 / scenecut=40 / rc=2pass / bitrate=5498 / ratetol=1.0 / qcomp=0.60 / qpmin=10 / qpmax=51 / qpstep=4 / cplxblur=20.0 / qblur=0.5 / vbv_maxrate=50000 / vbv_bufsize=50000 / ip_ratio=1.40 / pb_ratio=1.30 / aq=1:0.80
Язык : Russian
Default : Да
Forced : Нет
Аудио #1
Идентификатор : 2
Формат : AC-3
Формат/Информация : Audio Coding 3
Расширение режима : CM (complete main)
Параметр Endianness формата : Big
Идентификатор кодека : A_AC3
Продолжительность : 1 ч. 45 м.
Вид битрейта : Постоянный
Битрейт : 192 Кбит/сек
Каналы : 2 канала
Расположение каналов : Front: L R
Частота : 48,0 КГц
Битовая глубина : 16 бит
Метод сжатия : С потерями
Размер потока : 145 Мбайт (3%)
Заголовок : Russian - DUB
Язык : Russian
Default : Нет
Forced : Нет
Аудио #2
Идентификатор : 3
Формат : AC-3
Формат/Информация : Audio Coding 3
Расширение режима : CM (complete main)
Параметр Endianness формата : Big
Идентификатор кодека : A_AC3
Продолжительность : 1 ч. 45 м.
Вид битрейта : Постоянный
Битрейт : 192 Кбит/сек
Каналы : 2 канала
Расположение каналов : Front: L R
Частота : 48,0 КГц
Битовая глубина : 16 бит
Метод сжатия : С потерями
Размер потока : 145 Мбайт (3%)
Заголовок : Russian - VO - Mihalev
Язык : Russian
Default : Да
Forced : Нет
Аудио #3
Идентификатор : 4
Формат : AC-3
Формат/Информация : Audio Coding 3
Расширение режима : CM (complete main)
Параметр Endianness формата : Big
Идентификатор кодека : A_AC3
Продолжительность : 1 ч. 45 м.
Вид битрейта : Постоянный
Битрейт : 448 Кбит/сек
Каналы : 2 канала
Расположение каналов : Front: L R
Частота : 48,0 КГц
Битовая глубина : 16 бит
Метод сжатия : С потерями
Размер потока : 337 Мбайт (7%)
Заголовок : English
Язык : English
Default : Нет
Forced : Нет
Текст #1
Идентификатор : 5
Формат : UTF-8
Идентификатор кодека : S_TEXT/UTF8
Идентификатор кодека/Информация : UTF-8 Plain Text
Заголовок : Russian
Язык : Russian
Default : Нет
Forced : Нет
Текст #2
Идентификатор : 6
Формат : UTF-8
Идентификатор кодека : S_TEXT/UTF8
Идентификатор кодека/Информация : UTF-8 Plain Text
Заголовок : English
Язык : English
Default : Нет
Forced : Нет

_________________
[Торрент-статистика]
[Профиль]  [ЛС] 

Пост 01-Фев-2014 13:13 (спустя 19 часов)

Топик был перенесен из форума Фильмы 1991-1994 в форум Зарубежное кино (HD Video)
ArtZak
 
Показать сообщения:    
Ответить на тему

Текущее время: Сегодня 16:15

Часовой пояс: GMT + 4



Вы не можете начинать темы
Вы не можете отвечать на сообщения
Вы не можете редактировать свои сообщения
Вы не можете удалять свои сообщения
Вы не можете голосовать в опросах
Вы не можете прикреплять файлы к сообщениям
Вы не можете скачивать файлы