Достучаться до небес / Knockin' On Heaven's Door (Томас Ян / Thomas Jahn) [1997 г., Комедия, драма, боевик, BDRip 720p]

Ответить на тему
 
Автор
Сообщение

awk05 ®

Пол:

Стаж: 8 лет 10 месяцев

Сообщений: 1334

Репутация: 278 [+] [-]

Откуда: Западная Украина Ривне

Пост 27-Янв-2014 16:23

[Цитировать] 

--Достучаться до небес / Knockin' On Heaven's Door--«Быстрый автомобиль, миллион марок в багажнике, и всего одна неделя жить.» -- Год выпуска: 1997
Страна: Германия, Бельгия
Жанр: Комедия, драма, боевик
Продолжительность: 01:28:56
Перевод 1: Профессиональный (полное дублирование) Мосфильм
Перевод 2: Профессиональный (многоголосый, закадровый) CP Digital
Русские субтитры: есть (два варианта)--
Режиссер: Томас Ян / Thomas Jahn--
В ролях: Тиль Швайгер (Martin Brest), Ян Йозеф Лиферс (Rudi Wurlitzer), Тьерри Ван Вервеке (Henk - der Belgier), Мориц Бляйбтрой (Abdul - der Araber), Хуб Стапель (Frankie 'Boy' Beluga), Леонард Лансинк (Kommissar Schneider), Ральф Херфорт (Assistent Keller), Корнелия Фробесс (Frau Brest - Martins Mutter), Рутгер Хауэр (Curtiz), Кристиана Пауль (Verkäuferin in der Boutique), Ханнес Янике (Motorradpolizist), Уилли Томчик (Autoverkäufer) --Описание: Классная тачка, миллион в багажнике и последняя неделя жизни... Лежащие в больнице Мартин и Руди узнают, что оба смертельно больны и жить им осталось несколько дней. Выяснив, что Руди никогда не видел моря. Мартин хочет во что бы то ни стало осуществить мечту своего нового друга. Как следует заправившись текилой, друзья в больничных пижамах угоняют принадлежащий крутому мафиози коллекционный "Мерседес", в бардачке которого лежит пистолет, а в багажнике - миллион долларов. Ограбив по дороге бензоколонку и банк, Мартин и Руди, преследуемые и гангстерами и полицией, отправляются в путешествие навстречу мечте...--
Качество: BDRip
Формат: MKV
Видео кодек: AVC (High@L4.1)
Аудио кодек: AC3
Видео: 1280x544 (2.35:1), 23,976 кадра/сек, 5371 Кбит/сек, 0.304 Бит/(Пиксели*Кадры)
Аудио1: 6 каналов Front: L C R, Side: L R, LFE, 48,0 КГц, 640 Кбит/сек [RUS]CP Digital
Аудио2: 2 канала Front: L R, 48,0 КГц, 384 Кбит/сек [RUS] Мосфильм
Аудио3: 6 каналов Front: L C R, Side: L R, LFE, 48,0 КГц, 640 Кбит/сек [GER]
Субтитры: Русские (CP Digital), русские (Тивионика), немецкие, английские--
--

Знаете ли Вы, что...

* Название «Knockin` On Heaven`s Door» было позаимствовано у песни Боба Дилана. Она же стала заглавной композицией фильма.
* На девятой минуте фильма два бандита перегоняют машину из одного города в другой. По дороге один из них (Абдулл) хочет занять место водителя. Второй (Хенк) сопротивляется, тогда Абдулл достаёт оружие. Пока он не вытащил пушку, очки у человека за рулём матовые, а когда приставляет к виску — очки уже глянцевые, да ещё в них отражается съёмочная бригада и камера. На семьдесят второй минуте, в борделе, Абдулл и Хенк докладывают Фрэнки, что оба беглеца находятся тут же, когда Хенк говорит Фрэнки «Они тут», внизу кадра очень хорошо видно микрофон, который держит один из членов съемочной группы. Несколькими секундами позже, там же, когда Руди отдыхает с двумя девушками, камера вращается и в кадр по очереди попадают члены съемочной бригады: ноги в ботинках и джинсах, потом снова чьи-то ноги в джинсах.
* Имена двух главных персонажей, Мартин Брест и Руди Вурлицер, были даны в честь знаменитого режиссера («Запах женщины» 1992, «Знакомьтесь, Джо Блэк» 1998) и несколько менее знаменитого сценариста («Пэт Гэрретт и Билли Кид» 1973, «Маленький Будда» 1993) соответственно.
* В 2009 на экраны вышел японский римейк. В отличие от оригинала, в японской версии главными героями являются 28-летний парень и 14-летняя девочка.
* Режиссера Томаса Яна можно увидеть в эпизодической роли таксиста (сцена перед покупкой Кадиллак-Флитвуд).

MediaInfo

Общее
Уникальный идентификатор : 213886846931196022036476651383039565733 (0xA0E91BBAF5CE649E88A9F4A777959FA5)
Полное имя : E:\Films\Knockin on Heavens Door.1997.BD.Rip.720p.h264.2xRus.Ger.mkv
Формат : Matroska
Версия формата : Version 2
Размер файла : 4,37 Гбайт
Продолжительность : 1 ч. 28 м.
Общий поток : 7037 Кбит/сек
Название фильма : Knockin' on Heaven's Door 1997 - HDC
Дата кодирования : UTC 2009-09-25 22:47:59
Программа кодирования : mkvmerge v2.9.8 ('C'est le bon') built on Aug 13 2009 12:49:06
Библиотека кодирования : libebml v0.7.7 + libmatroska v0.8.1
Видео
Идентификатор : 1
Формат : AVC
Формат/Информация : Advanced Video Codec
Профиль формата : High@L4.1
Параметр CABAC формата : Да
Параметр ReFrames формата : 12 кадров
Идентификатор кодека : V_MPEG4/ISO/AVC
Продолжительность : 1 ч. 28 м.
Битрейт : 5371 Кбит/сек
Ширина : 1280 пикселей
Высота : 544 пикселя
Соотношение сторон : 2,35:1
Режим частоты кадров : Постоянный
Частота кадров : 23,976 кадра/сек
Цветовое пространство : YUV
Субдискретизация насыщенности : 4:2:0
Битовая глубина : 8 бит
Тип развёртки : Прогрессивная
Бит/(Пиксели*Кадры) : 0.322
Размер потока : 3,25 Гбайт (74%)
Библиотека кодирования : x264 core 76 r1268M d542926
Настройки программы : cabac=1 / ref=12 / deblock=1:-3:-3 / analyse=0x3:0x113 / me=umh / subme=10 / psy=1 / psy_rd=1.0:0.0 / mixed_ref=1 / me_range=32 / chroma_me=1 / trellis=2 / 8x8dct=1 / cqm=0 / deadzone=21,11 / chroma_qp_offset=-2 / threads=6 / nr=0 / decimate=1 / mbaff=0 / bframes=3 / b_pyramid=0 / b_adapt=2 / b_bias=0 / direct=3 / wpredb=1 / keyint=250 / keyint_min=25 / scenecut=40 / rc_lookahead=30 / rc=2pass / mbtree=1 / bitrate=5371 / ratetol=1.0 / qcomp=0.60 / qpmin=10 / qpmax=51 / qpstep=4 / cplxblur=20.0 / qblur=0.5 / ip_ratio=1.40 / aq=1:0.80 / pulldown=0 / nal_hrd=0
Язык : English
Default : Да
Forced : Нет
Аудио #1
Идентификатор : 2
Формат : AC-3
Формат/Информация : Audio Coding 3
Расширение режима : CM (complete main)
Параметр Endianness формата : Big
Идентификатор кодека : A_AC3
Продолжительность : 1 ч. 28 м.
Вид битрейта : Постоянный
Битрейт : 640 Кбит/сек
Каналы : 6 каналов
Расположение каналов : Front: L C R, Side: L R, LFE
Частота : 48,0 КГц
Битовая глубина : 16 бит
Метод сжатия : С потерями
Размер потока : 407 Мбайт (9%)
Заголовок : Mnogogoloska CP Digital AC3 5.1 640 kbps
Язык : Russian
Default : Да
Forced : Нет
Аудио #2
Идентификатор : 3
Формат : AC-3
Формат/Информация : Audio Coding 3
Расширение режима : CM (complete main)
Параметр Endianness формата : Big
Идентификатор кодека : A_AC3
Продолжительность : 1 ч. 28 м.
Вид битрейта : Постоянный
Битрейт : 384 Кбит/сек
Каналы : 2 канала
Расположение каналов : Front: L R
Частота : 48,0 КГц
Битовая глубина : 16 бит
Метод сжатия : С потерями
Размер потока : 244 Мбайт (5%)
Заголовок : Dublyazh Tivionika AC3 2.0 384 kbps
Язык : Russian
Default : Нет
Forced : Нет
Аудио #3
Идентификатор : 4
Формат : AC-3
Формат/Информация : Audio Coding 3
Расширение режима : CM (complete main)
Параметр Endianness формата : Big
Идентификатор кодека : A_AC3
Продолжительность : 1 ч. 28 м.
Вид битрейта : Постоянный
Битрейт : 640 Кбит/сек
Каналы : 6 каналов
Расположение каналов : Front: L C R, Side: L R, LFE
Частота : 48,0 КГц
Битовая глубина : 16 бит
Метод сжатия : С потерями
Размер потока : 407 Мбайт (9%)
Заголовок : AC3 5.1 640 kbps
Язык : German
Default : Нет
Forced : Нет
Текст #1
Идентификатор : 5
Формат : UTF-8
Идентификатор кодека : S_TEXT/UTF8
Идентификатор кодека/Информация : UTF-8 Plain Text
Заголовок : CP Digital
Язык : Russian
Default : Нет
Forced : Нет
Текст #2
Идентификатор : 6
Формат : UTF-8
Идентификатор кодека : S_TEXT/UTF8
Идентификатор кодека/Информация : UTF-8 Plain Text
Заголовок : Tivionika
Язык : Russian
Default : Нет
Forced : Нет
Текст #3
Идентификатор : 7
Формат : UTF-8
Идентификатор кодека : S_TEXT/UTF8
Идентификатор кодека/Информация : UTF-8 Plain Text
Язык : English
Default : Нет
Forced : Нет
Текст #4
Идентификатор : 8
Формат : UTF-8
Идентификатор кодека : S_TEXT/UTF8
Идентификатор кодека/Информация : UTF-8 Plain Text
Язык : German
Default : Нет
Forced : Нет
Меню
00:00:00.000 : :00:00:00.000
00:07:58.395 : :00:07:58.395
00:15:45.778 : :00:15:45.778
00:20:59.633 : :00:20:59.633
00:26:37.513 : :00:26:37.513
00:32:24.401 : :00:32:24.401
00:39:46.384 : :00:39:46.384
00:47:04.613 : :00:47:04.613
00:54:11.832 : :00:54:11.832
01:02:44.844 : :01:02:44.844
01:11:54.060 : :01:11:54.060
01:19:49.410 : :01:19:49.410

_________________
[Торрент-статистика]
[Профиль]  [ЛС] 

Пост 29-Янв-2014 23:49 (спустя 2 дня 7 часов)

Топик был перенесен из форума Фильмы 1995-1999 в форум Зарубежное кино (HD Video)
ArtZak
 
Показать сообщения:    
Ответить на тему

Текущее время: Сегодня 02:53

Часовой пояс: GMT + 4



Вы не можете начинать темы
Вы не можете отвечать на сообщения
Вы не можете редактировать свои сообщения
Вы не можете удалять свои сообщения
Вы не можете голосовать в опросах
Вы не можете прикреплять файлы к сообщениям
Вы не можете скачивать файлы