Сейчас самое время / Now Is Good (Ол Паркер / Ol Parker) [2012, Великобритания, Мелодрама, BDRip 720p] Dub + Sub Rus + Original Eng

Ответить на тему
 
Автор
Сообщение

awk05 ®

Пол:

Стаж: 8 лет 10 месяцев

Сообщений: 1334

Репутация: 278 [+] [-]

Откуда: Западная Украина Ривне

Пост 27-Янв-2014 15:43

[Цитировать] 

--Сейчас самое время / Now Is Good--«Живи. Люби. Мечтай.»-- Страна: Великобритания
Жанр: Мелодрама
Год выпуска: 2012
Продолжительность: 01:42:45
Перевод: Профессиональный (дублированный)
Cубтитры: русские
Оригинальная аудиодорожка: английский--
Режиссер: Ол Паркер / Ol Parker--
В ролях: Дакота Фаннинг (Tessa Scott), Джереми Ирвин (Adam), Пэдди Консидайн (Father), Оливия Уильямс (Mother), Кая Скоделарио (Zoey), Роуз Лесли (Fiona), Сара Хэдлэнд (Caroline), Джо Коул (Scott), Рэки Айола (Phillippa), Патрик Балади (Richard), Франц Драмех (Tommy), Сьюзэн Браун (Shirley)--
Описание: Тессе семнадцать, и она хочет жить нормальной жизнью. Она мечтает о тех же вещах, что и все подростки. Но что делать, если времени осталось мало? Тесса принимает решение, прожить все, что отмерено, так, чтобы ни одна минута не пропала зря. Девушка составляет список того, что обязательно нужно успеть: потерять невинность, попробовать наркотики, прыгнуть с парашютом, по-настоящему полюбить. Она шаг за шагом воплощает свои намерения. Но внезапно вспыхнувшее чувство к соседскому парню Адаму меняет все ее планы.--
Тип релиза: BDRip 720p
Контейнер: MKV
Видео кодек: AVC
Аудио кодек: DTS
Видео: 1280 x 536 (2,40:1), 4500 Кбит/сек, 24,000 кадра/сек, 0.273 Бит/(Пиксели*Кадры)
Аудио#1: 6 каналов Front: L C R, Side: L R, LFE, 48,0 КГц, 1510 Кбит/сек [RUS]
Аудио#2: 6 каналов Front: L C R, Side: L R, LFE, 48,0 КГц, 1510 Кбит/сек [ENG]--
--

MediaInfo

Общее
Уникальный идентификатор : 234370323772684403146844875256271686508 (0xB052151C4ACC8239AFC9C4BD327F4B6C)
Полное имя : Now.Is.Good.2012.720p.Bluray.Rus.Eng.HDCLUB.mkv
Формат : Matroska
Версия формата : Version 2
Размер файла : 5,39 Гбайт
Продолжительность : 1 ч. 42 м.
Общий поток : 7515 Кбит/сек
Название фильма : HDCLUB present "Now Is Good (2012)"
Дата кодирования : UTC 2013-01-22 10:49:20
Программа кодирования : mkvmerge v5.8.0 ('No Sleep / Pillow') built on Sep 2 2012 15:37:04
Библиотека кодирования : libebml v1.2.3 + libmatroska v1.3.0
Видео
Идентификатор : 1
Формат : AVC
Формат/Информация : Advanced Video Codec
Профиль формата : High@L4.1
Параметр CABAC формата : Да
Параметр ReFrames формата : 12 кадров
Идентификатор кодека : V_MPEG4/ISO/AVC
Продолжительность : 1 ч. 42 м.
Битрейт : 4500 Кбит/сек
Ширина : 1280 пикселей
Высота : 536 пикселей
Соотношение сторон : 2,40:1
Частота кадров : 24,000 кадра/сек
Цветовое пространство : YUV
Субдискретизация насыщенности : 4:2:0
Битовая глубина : 8 бит
Тип развёртки : Прогрессивная
Бит/(Пиксели*Кадры) : 0.273
Размер потока : 3,12 Гбайт (58%)
Заголовок : Now.Is.Good.2012.720p.Bluray.Rus.Eng.HDCLUB
Библиотека кодирования : x264 core 129 r2245 bc13772
Настройки программы : cabac=1 / ref=12 / deblock=1:-3:-3 / analyse=0x3:0x133 / me=umh / subme=11 / psy=1 / psy_rd=1.05:0.00 / mixed_ref=1 / me_range=48 / chroma_me=1 / trellis=2 / 8x8dct=1 / cqm=0 / deadzone=21,11 / fast_pskip=0 / chroma_qp_offset=-2 / threads=12 / lookahead_threads=2 / sliced_threads=0 / nr=0 / decimate=1 / interlaced=0 / bluray_compat=0 / constrained_intra=0 / bframes=8 / b_pyramid=2 / b_adapt=2 / b_bias=0 / direct=3 / weightb=1 / open_gop=0 / weightp=2 / keyint=250 / keyint_min=23 / scenecut=40 / intra_refresh=0 / rc_lookahead=60 / rc=2pass / mbtree=0 / bitrate=4500 / ratetol=1.0 / qcomp=0.60 / qpmin=0 / qpmax=69 / qpstep=4 / cplxblur=20.0 / qblur=0.5 / vbv_maxrate=50000 / vbv_bufsize=62500 / nal_hrd=none / ip_ratio=1.40 / pb_ratio=1.30 / aq=1:0.80
Язык : English
Default : Да
Forced : Да
Аудио #1
Идентификатор : 2
Формат : DTS
Формат/Информация : Digital Theater Systems
Идентификатор кодека : A_DTS
Продолжительность : 1 ч. 42 м.
Вид битрейта : Постоянный
Битрейт : 1510 Кбит/сек
Каналы : 6 каналов
Расположение каналов : Front: L C R, Side: L R, LFE
Частота : 48,0 КГц
Битовая глубина : 16 бит
Метод сжатия : С потерями
Размер потока : 1,08 Гбайт (20%)
Заголовок : DTS 5.1 @ 1509 kbps - Dubbed [BD RUS]
Язык : Russian
Default : Да
Forced : Да
Аудио #2
Идентификатор : 3
Формат : DTS
Формат/Информация : Digital Theater Systems
Идентификатор кодека : A_DTS
Продолжительность : 1 ч. 42 м.
Вид битрейта : Постоянный
Битрейт : 1510 Кбит/сек
Каналы : 6 каналов
Расположение каналов : Front: L C R, Side: L R, LFE
Частота : 48,0 КГц
Битовая глубина : 16 бит
Метод сжатия : С потерями
Размер потока : 1,08 Гбайт (20%)
Заголовок : DTS 5.1 @ 1509 kbps - Original [BD RUS]
Язык : English
Default : Нет
Forced : Нет
Текст
Идентификатор : 4
Формат : UTF-8
Идентификатор кодека : S_TEXT/UTF8
Идентификатор кодека/Информация : UTF-8 Plain Text
Заголовок : full [BD RUS]
Язык : Russian
Default : Нет
Forced : Нет
Меню
00:00:00.000 : en:Chapter 00
00:10:30.333 : en:Chapter 01
00:17:27.416 : en:Chapter 02
00:23:41.583 : en:Chapter 03
00:30:31.541 : en:Chapter 04
00:37:38.458 : en:Chapter 05
00:44:25.750 : en:Chapter 06
00:53:31.833 : en:Chapter 07
01:02:39.291 : en:Chapter 08
01:12:49.416 : en:Chapter 09
01:20:58.458 : en:Chapter 10
01:30:44.125 : en:Chapter 11

Скриншоты



_________________
[Торрент-статистика]
[Профиль]  [ЛС] 

Пост 27-Янв-2014 15:51 (спустя 8 минут)

Топик был перенесен из форума Фильмы 2012-2013 в форум Зарубежное кино (HD Video)
ArtZak
 
Показать сообщения:    
Ответить на тему

Текущее время: Сегодня 03:21

Часовой пояс: GMT + 4



Вы не можете начинать темы
Вы не можете отвечать на сообщения
Вы не можете редактировать свои сообщения
Вы не можете удалять свои сообщения
Вы не можете голосовать в опросах
Вы не можете прикреплять файлы к сообщениям
Вы не можете скачивать файлы