Сенсация / Scoop (Вуди Аллен / Woody Allen) [2006 г., фэнтези, комедия, мелодрама, детектив, BDRip 720p] MVO + original + sub

Ответить на тему
 
Автор
Сообщение

awk05 ®

Пол:

Стаж: 5 лет 5 месяцев

Сообщений: 1352

Репутация: 275 [+] [-]

Откуда: Западная Украина Ривне

Пост 27-Янв-2014 14:44

[Цитировать] 

--Сенсация / Scoop--«Идеальный мужчина. Идеальная история. Идеальное убийство.»-- Страна: США, Великобритания
Жанр: фэнтези, мелодрама, комедия, детектив
Год выпуска: 2006
Продолжительность: 01:35:33
Перевод: Профессиональный (многоголосый, закадровый)
Субтитры: русские, английские--
Режиссер: Вуди Аллен / Woody Allen--
В ролях: Скарлетт Йоханссон (Sondra Pransky), Хью Джекман (Peter Lyman), Ромола Гарай (Vivian), Иэн МакШейн (Joe Strombel), Кевин МакНэлли (Mike Tinsley), Вуди Аллен (Sid Waterman), Мэтт Дэй (Jerry Burke), Энтони Хэд (Detective), Джим Данк (Funeral Speaker), Роберт Баферст (Strombel's Co-Worker), Джофф Белл (Strombel's Co-Worker), Кристофер Фулфорд (Strombel's Co-Worker)--
Описание: Погибшего британского журналиста Джо Стромбела оплакивают его друзья и коллеги, но даже в чистилище Джо не покидают мысли о работе, ведь он только что узнал сенсационную новость об убийце, орудующем в Лондоне. Как же ему теперь сделать работу, которая требует столько беготни?
С помощью вполне живой Сондры Прански. Сондра - американская студентка, изучающая журналистику, приезжает к друзьям в Лондон. Во время выступления американского мага Сида Вотермана, Сондра видит и слышит Джо. Он рассказывает ей о сенсационной новости, которая станет величайшим репортажем в ее жизни, убеждая отправиться на ее поиски. Сондра бросается в погоню за сенсацией...--

Качество: BDRip 720p
Контейнер: MKV
Видео кодек: AVC High@L4.1
Аудио кодек: AC3
Видео: 1280x720 (16:9), 23,976 fps, 5413 kbps, 0.245 Bits/(Pixel*Frame)
Аудио №1: 6 каналов Front: L C R, Side: L R, LFE, 48,0 КГц, 448 Кбит/сек [RUS]
Аудио №2: 6 каналов Front: L C R, Side: L R, LFE, 48,0 КГц, 640 Кбит/сек [ENG]
Навигация по главам: есть (с БД)--
--

MediaInfo

General
Unique ID : 170217621954488309793407659268071379708 (0x800EB8B56EF154F996247393BAAE52FC)
Complete name : Сенсация__Scoop [2006.BDRip.720p.Rus.Eng.Subs]-HQFans.mkv
Format : Matroska
Format version : Version 2
File size : 4.34 GiB
Duration : 1h 35mn
Overall bit rate : 6 499 Kbps
Movie name : Сенсация / Scoop (2006) || BDRip/720p || HQFans.org
Encoded date : UTC 2012-02-24 04:46:54
Writing application : mkvmerge v5.3.0 ('I could have danced') built on Feb 9 2012 10:38:07
Writing library : libebml v1.2.3 + libmatroska v1.3.0
Video
ID : 1
Format : AVC
Format/Info : Advanced Video Codec
Format profile : High@L4.1
Format settings, CABAC : Yes
Format settings, ReFrames : 8 frames
Codec ID : V_MPEG4/ISO/AVC
Duration : 1h 35mn
Bit rate : 5 413 Kbps
Width : 1 280 pixels
Height : 720 pixels
Display aspect ratio : 16:9
Frame rate : 23.976 fps
Color space : YUV
Chroma subsampling : 4:2:0
Bit depth : 8 bits
Scan type : Progressive
Bits/(Pixel*Frame) : 0.245
Stream size : 3.53 GiB (81%)
Title : rip by PatRiOt88@HQFans
Writing library : x264 core 120 r2164 da19765
Encoding settings : cabac=1 / ref=8 / deblock=1:-3:-3 / analyse=0x3:0x113 / me=esa / subme=11 / psy=1 / psy_rd=1.00:0.00 / mixed_ref=1 / me_range=32 / chroma_me=1 / trellis=2 / 8x8dct=1 / cqm=0 / deadzone=21,11 / fast_pskip=0 / chroma_qp_offset=-2 / threads=6 / sliced_threads=0 / nr=0 / decimate=0 / interlaced=0 / bluray_compat=0 / constrained_intra=0 / bframes=11 / b_pyramid=2 / b_adapt=2 / b_bias=0 / direct=3 / weightb=1 / open_gop=0 / weightp=2 / keyint=240 / keyint_min=24 / scenecut=40 / intra_refresh=0 / rc_lookahead=40 / rc=2pass / mbtree=0 / bitrate=5413 / ratetol=1.0 / qcomp=0.60 / qpmin=0 / qpmax=51 / qpstep=4 / cplxblur=20.0 / qblur=0.5 / vbv_maxrate=62500 / vbv_bufsize=50000 / nal_hrd=none / ip_ratio=1.40 / pb_ratio=1.30 / aq=1:1.00
Language : English
Default : Yes
Forced : No
Color primaries : BT.709-5, BT.1361, IEC 61966-2-4, SMPTE RP177
Transfer characteristics : BT.709-5, BT.1361
Matrix coefficients : BT.709-5, BT.1361, IEC 61966-2-4 709, SMPTE RP177
Audio #1
ID : 2
Format : AC-3
Format/Info : Audio Coding 3
Mode extension : CM (complete main)
Codec ID : A_AC3
Duration : 1h 35mn
Bit rate mode : Constant
Bit rate : 448 Kbps
Channel(s) : 6 channels
Channel positions : Front: L C R, Side: L R, LFE
Sampling rate : 48.0 KHz
Bit depth : 16 bits
Compression mode : Lossy
Stream size : 306 MiB (7%)
Title : MVO R5
Language : Russian
Default : Yes
Forced : No
Audio #2
ID : 3
Format : AC-3
Format/Info : Audio Coding 3
Mode extension : CM (complete main)
Codec ID : A_AC3
Duration : 1h 35mn
Bit rate mode : Constant
Bit rate : 640 Kbps
Channel(s) : 6 channels
Channel positions : Front: L C R, Side: L R, LFE
Sampling rate : 48.0 KHz
Bit depth : 16 bits
Compression mode : Lossy
Stream size : 437 MiB (10%)
Title : Original
Language : English
Default : No
Forced : No
Text #1
ID : 4
Format : UTF-8
Codec ID : S_TEXT/UTF8
Codec ID/Info : UTF-8 Plain Text
Language : Russian
Default : No
Forced : No
Text #2
ID : 5
Format : UTF-8
Codec ID : S_TEXT/UTF8
Codec ID/Info : UTF-8 Plain Text
Language : English
Default : No
Forced : No
Menu
00:00:00.000 : en:00:00:00.000
00:09:07.839 : en:00:09:07.839
00:20:41.532 : en:00:20:41.532
00:29:39.778 : en:00:29:39.778
00:36:29.104 : en:00:36:29.104
00:44:04.225 : en:00:44:04.225
00:48:54.431 : en:00:48:54.431
00:55:28.408 : en:00:55:28.408
01:04:45.340 : en:01:04:45.340
01:15:31.318 : en:01:15:31.318
01:24:52.087 : en:01:24:52.087
01:32:32.213 : en:01:32:32.213

_________________


Последний раз редактировалось: awk05 (2014-07-22 00:52), всего редактировалось 1 раз
[Торрент-статистика]
[Профиль]  [ЛС] 

Пост 29-Янв-2014 23:48 (спустя 2 дня 9 часов)

Топик был перенесен из форума Фильмы 2005-2009 в форум Зарубежное кино (HD Video)
ArtZak
 
Показать сообщения:    
Ответить на тему

Текущее время: Сегодня 04:09

Часовой пояс: GMT + 4



Вы не можете начинать темы
Вы не можете отвечать на сообщения
Вы не можете редактировать свои сообщения
Вы не можете удалять свои сообщения
Вы не можете голосовать в опросах
Вы не можете прикреплять файлы к сообщениям
Вы не можете скачивать файлы