РЭД / Red (Роберт Швентке / Robert Schwentke) [2010 г., боевик, комедия, криминал, BDRip 720p] Dub + Original Eng

Ответить на тему
 
Автор
Сообщение

awk05 ®

Пол:

Стаж: 4 года 5 месяцев

Сообщений: 1352

Репутация: 275 [+] [-]

Откуда: Западная Украина Ривне

Пост 25-Янв-2014 20:19

[Цитировать] 

--Р.Э.Д / R.e.d «Бывших агентов не бывает» --Страна: США
Жанр: боевик, триллер, комедия
Год выпуска: 2010
Продолжительность: 01:51:09
Перевод: Профессиональный (дублированный) R5
Cубтитры: русские, английские
Оригинальная аудиодорожка: английский--Режиссер: Роберт Швентке / Robert Schwentke--В ролях: Брюс Уиллис (Frank Moses), Джон Малкович (Marvin Boggs), Морган Фриман (Joe Matheson), Хелен Миррен (Victoria), Мэри-Луиз Паркер (Sarah Ross), Карл Урбан (William Cooper), Брайан Кокс (Ivan Simonov), Ричард Дрейфусс (Alexander Dunning), Джулиан МакМэхон (Robert Stanton), Эрнест Боргнайн (Henry, The Records Keeper), Карл Урбан (Джеймс Римар) и др.--Описание: Фрэнк Мозес, экс-агент супергруппы ЦРУ, живет теперь мирной и тихой жизнью. Но прошлое настигает его: как-то утром загадочный киллер пытается лишить его жизни. Опытный Фрэнк, конечно, сумел увернуться от пули, но сразу понял, что дело «табак». Кто же поможет справиться с командой ликвидаторов? Конечно, бывшие напарники: харизматичный Джо Мэтисон и параноик Марвин Боггс. Прекрасный повод тряхнуть стариной!--Качество видео: BDRip.720p
Формат видео: MKV
Видео кодек: AVC High@L4.1
Аудио кодек: DTS
Видео: 1280x534 (2.40:1), 23.976 кадра/сек, 5500 Кбит/сек, 0.336 Бит/(Пиксели*Кадры)
Аудио 1: Dublyazh DTS 5.1 1536 kbps, 48kHz, R5 Russian
Аудио 2: DTS 5.1 1536 kbps 48kHz, , Оригинал English
Формат субтитров: softsub (SRT)--
--

MediaInfo

Общее
Уникальный идентификатор : 177334861092267030202931015426865544975 (0x856973B0C69B8433B84DE83ACD62BF0F)
Полное имя : D:\раздачи\Red.2010.BD.Rip.720p.h264.Rus.Eng.mkv
Формат : Matroska
Версия формата : Version 2
Размер файла : 6,62 Гбайт
Продолжительность : 1 ч. 51 м.
Общий поток : 8520 Кбит/сек
Дата кодирования : UTC 2011-01-28 13:17:38
Программа кодирования : mkvmerge v4.4.0 ('Die Wiederkehr') built on Jan 3 2011 21:40:45
Библиотека кодирования : libebml v1.0.0 + libmatroska v1.0.0
Видео
Идентификатор : 1
Формат : AVC
Формат/Информация : Advanced Video Codec
Профиль формата : High@L4.1
Параметр CABAC формата : Да
Параметр ReFrames формата : 10 кадров
Идентификатор кодека : V_MPEG4/ISO/AVC
Продолжительность : 1 ч. 51 м.
Битрейт : 5500 Кбит/сек
Ширина : 1280 пикселей
Высота : 534 пикселя
Соотношение сторон : 2,40:1
Режим частоты кадров : Постоянный
Частота кадров : 23,976 кадра/сек
Цветовое пространство : YUV
Субдискретизация насыщенности : 4:2:0
Битовая глубина : 8 бит
Тип развёртки : Прогрессивная
Бит/(Пиксели*Кадры) : 0.336
Размер потока : 4,14 Гбайт (63%)
Библиотека кодирования : x264 core 112 r1867 22bfd31
Настройки программы : cabac=1 / ref=10 / deblock=1:-3:-3 / analyse=0x3:0x113 / me=tesa / subme=10 / psy=1 / psy_rd=1.00:0.00 / mixed_ref=1 / me_range=16 / chroma_me=1 / trellis=2 / 8x8dct=1 / cqm=0 / deadzone=21,11 / fast_pskip=0 / chroma_qp_offset=-2 / threads=6 / sliced_threads=0 / nr=0 / decimate=0 / interlaced=0 / constrained_intra=0 / bframes=8 / b_pyramid=2 / b_adapt=2 / b_bias=0 / direct=3 / weightb=1 / open_gop=0 / weightp=2 / keyint=250 / keyint_min=23 / scenecut=40 / intra_refresh=0 / rc=2pass / mbtree=0 / bitrate=5500 / ratetol=1.0 / qcomp=0.70 / qpmin=0 / qpmax=51 / qpstep=4 / cplxblur=20.0 / qblur=0.5 / ip_ratio=1.40 / pb_ratio=1.30 / aq=1:0.85
Язык : English
Default : Да
Forced : Нет
Аудио #1
Идентификатор : 2
Формат : DTS
Формат/Информация : Digital Theater Systems
Режим : 16
Параметр Endianness формата : Big
Идентификатор кодека : A_DTS
Продолжительность : 1 ч. 51 м.
Вид битрейта : Постоянный
Битрейт : 1510 Кбит/сек
Каналы : 6 каналов
Расположение каналов : Front: L C R, Side: L R, LFE
Частота : 48,0 КГц
Битовая глубина : 16 бит
Метод сжатия : С потерями
Размер потока : 1,17 Гбайт (18%)
Заголовок : Dublyazh DTS 5.1 1536 kbps
Язык : Russian
Default : Да
Forced : Нет
Аудио #2
Идентификатор : 3
Формат : DTS
Формат/Информация : Digital Theater Systems
Режим : 16
Параметр Endianness формата : Big
Идентификатор кодека : A_DTS
Продолжительность : 1 ч. 51 м.
Вид битрейта : Постоянный
Битрейт : 1509 Кбит/сек
Каналы : 6 каналов
Расположение каналов : Front: L C R, Side: L R, LFE
Частота : 48,0 КГц
Битовая глубина : 24 бит
Метод сжатия : С потерями
Размер потока : 1,17 Гбайт (18%)
Заголовок : DTS 5.1 1536 kbps
Язык : English
Default : Нет
Forced : Нет
Текст #1
Идентификатор : 4
Формат : UTF-8
Идентификатор кодека : S_TEXT/UTF8
Идентификатор кодека/Информация : UTF-8 Plain Text
Заголовок : Paradise (License)
Язык : Russian
Default : Нет
Forced : Нет
Текст #2
Идентификатор : 5
Формат : UTF-8
Идентификатор кодека : S_TEXT/UTF8
Идентификатор кодека/Информация : UTF-8 Plain Text
Заголовок : mr_greenwood
Язык : Russian
Default : Нет
Forced : Нет
Текст #3
Идентификатор : 6
Формат : UTF-8
Идентификатор кодека : S_TEXT/UTF8
Идентификатор кодека/Информация : UTF-8 Plain Text
Язык : English
Default : Нет
Forced : Нет
Текст #4
Идентификатор : 7
Формат : UTF-8
Идентификатор кодека : S_TEXT/UTF8
Идентификатор кодека/Информация : UTF-8 Plain Text
Заголовок : SDH
Язык : English
Default : Нет
Forced : Нет
Текст #5
Идентификатор : 8
Формат : UTF-8
Идентификатор кодека : S_TEXT/UTF8
Идентификатор кодека/Информация : UTF-8 Plain Text
Заголовок : Commentary with Consultant Bob Baer
Язык : English
Default : Нет
Forced : Нет
Текст #6
Идентификатор : 9
Формат : UTF-8
Идентификатор кодека : S_TEXT/UTF8
Идентификатор кодека/Информация : UTF-8 Plain Text
Язык : Spanish
Default : Нет
Forced : Нет
Меню
00:00:00.000 : en:1. The Check Is in the Mail
00:07:11.264 : en:2. They Know I Like You
00:14:03.426 : en:3. Total Black Out
00:20:53.461 : en:4. You Really Are CIA
00:24:06.570 : en:5. Not My Best First Date
00:29:10.457 : en:6. Tagged Him RED
00:35:56.571 : en:7. She Called Me An Old Man
00:43:26.687 : en:8. Hot Here for the Vodka
00:49:12.533 : en:9. Breaking Into the CIA
00:55:56.937 : en:10. Getting the Band Back Together
01:03:12.122 : en:11. A Little Girl Time
01:09:42.011 : en:12. How's Retirement?
01:15:24.270 : en:13. You're At My House
01:20:52.181 : en:14. Vice President Stanton
01:27:14.104 : en:15. Secondary Exit
01:33:04.788 : en:16. I Remember the Secret Service Being Tougher
01:38:31.906 : en:17. Wanna Get Pancakes?
01:43:16.649 : en:18. Greetings From Moldova

_________________
[Торрент-статистика]
[Профиль]  [ЛС] 
Показать сообщения:    
Ответить на тему

Текущее время: Сегодня 16:13

Часовой пояс: GMT + 4



Вы не можете начинать темы
Вы не можете отвечать на сообщения
Вы не можете редактировать свои сообщения
Вы не можете удалять свои сообщения
Вы не можете голосовать в опросах
Вы не можете прикреплять файлы к сообщениям
Вы не можете скачивать файлы