Шерлок Холмс / Sherlock Holmes (Гай Ричи / Guy Ritchie) [2009, США, Германия, Великобритания, боевик, триллер, драма, комедия, детектив, BDRemux 1080p] Dub (Rus, Ukr) + DVO + AVO (Сербин, Гаврилов) + Original (Eng) + Subs (Rus, Eng)

Ответить на тему
 
Автор
Сообщение

Волк ®

Пол:

Стаж: 5 лет 10 месяцев

Сообщений: 691

Репутация: 297 [+] [-]

Откуда: Армения

Пост 22-Янв-2014 23:19

[Цитировать] 

Шерлок Холмс / Sherlock Holmes-«От них не скроешься»- Страна: США, Германия, Великобритания
Жанр: боевик, триллер, драма, комедия, детектив
Год выпуска: 2009
Продолжительность: 02:08:24
Перевод #1: Профессиональный (дублированный)
Перевод #2: Профессиональный (двухголосый закадровый) - BBC Saint-Petersburg
Перевод #3: Авторский (одноголосый закадровый) - Ю. Сербин
Перевод #4: Авторский (одноголосый закадровый) - А. Гаврилов
Cубтитры: русские, английские
Оригинальная аудиодорожка: английский-Режиссер: Гай Ричи / Guy Ritchie
В ролях: Роберт Дауни мл., Джуд Лоу, Рэйчел МакАдамс, Марк Стронг, Эдди Марсан, Роберт Мэйллет, Джеральдин Джеймс, Келли Райлли-Описание: Величайший в истории сыщик Шерлок Холмс вместе со своим верным соратником Ватсоном вступают в схватку, требующую нешуточной физической и умственной подготовки, ведь их враг представляет угрозу для всего Лондона.-Тип релиза: BDRemux 1080p
Контейнер: BDAV
Видео: VC-1, 1920x1080, 23.976 fps, 22800 kbps
Аудио #1: Russian AC3, 5.1 / 48 kHz / 448 kbps |Дублированный|
Аудио #2: Russian DTS-HD MA, 5.1 / 48 kHz / 3971 kbps (DTS Core: 5.1 / 48 kHz / 1509 kbps) |BBC Saint-Petersburg|
Аудио #3: Russian DTS-HD MA, 5.1 / 48 kHz / 3966 kbps (DTS Core: 5.1 / 48 kHz / 1509 kbps) |Ю. Сербин|
Аудио #4: Russian DTS, 5.1 / 48 kHz / 768 kbps |А. Гаврилов|
Аудио #5: Ukrainian AC3, 5.1 / 48 kHz / 448 kbps |Дублированный|
Аудио #6: English DTS-HD MA, 5.1 / 48 kHz / 3978 Kbps (DTS Core: 5.1 / 48 kHz / 1509 Kbps) |Оригинал|
Формат субтитров: prerendered (Blu-ray/PGS/SUP)-

MediaInfo

GeneralID : 1 (0x1)Complete name : G:\фильмы\SHERLOCK_HOLMES_2009_BDREMUX_HDCLUB\BDMV\STREAM\00000.m2tsFormat : BDAVFormat/Info : Blu-ray VideoFile size : 32.1 GiBDuration : 2h 8mnOverall bit rate mode : VariableOverall bit rate : 35.8 MbpsMaximum Overall bit rate : 35.5 Mbps
VideoID : 4113 (0x1011)Menu ID : 1 (0x1)Format : VC-1Format profile : Advanced@L3Codec ID : 234Duration : 2h 8mnBit rate : 22.8 MbpsWidth : 1 920 pixelsHeight : 1 080 pixelsDisplay aspect ratio : 16:9Frame rate : 23.976 fpsChroma subsampling : 4:2:0Bit depth : 8 bitsScan type : ProgressiveCompression mode : LossyBits/(Pixel*Frame) : 0.459Stream size : 20.5 GiB (64%)
Audio #1ID : 4352 (0x1100)Menu ID : 1 (0x1)Format : AC-3Format/Info : Audio Coding 3Mode extension : CM (complete main)Format settings, Endianness : BigCodec ID : 129Duration : 2h 8mnBit rate mode : ConstantBit rate : 448 KbpsChannel(s) : 6 channelsChannel positions : Front: L C R, Side: L R, LFESampling rate : 48.0 KHzBit depth : 16 bitsCompression mode : LossyStream size : 411 MiB (1%)Language : Russian
Audio #2ID : 4353 (0x1101)Menu ID : 1 (0x1)Format : DTSFormat/Info : Digital Theater SystemsFormat profile : MA / CoreMuxing mode : Stream extensionCodec ID : 134Duration : 2h 8mnBit rate mode : VariableBit rate : 3 229 Kbps / 1 510 KbpsChannel(s) : 6 channelsChannel positions : Front: L C R, Side: L R, LFESampling rate : 48.0 KHzBit depth : 24 bitsCompression mode : Lossless / LossyLanguage : Russian
Audio #3ID : 4354 (0x1102)Menu ID : 1 (0x1)Format : DTSFormat/Info : Digital Theater SystemsFormat profile : MA / CoreMuxing mode : Stream extensionCodec ID : 134Duration : 2h 8mnBit rate mode : VariableBit rate : 3 235 Kbps / 1 510 KbpsChannel(s) : 6 channelsChannel positions : Front: L C R, Side: L R, LFESampling rate : 48.0 KHzBit depth : 24 bitsCompression mode : Lossless / LossyLanguage : Russian
Audio #4ID : 4355 (0x1103)Menu ID : 1 (0x1)Format : DTSFormat/Info : Digital Theater SystemsCodec ID : 130Duration : 2h 8mnBit rate mode : ConstantBit rate : 755 KbpsChannel(s) : 6 channelsChannel positions : Front: L C R, Side: L R, LFESampling rate : 48.0 KHzBit depth : 24 bitsCompression mode : LossyStream size : 693 MiB (2%)Language : Russian
Audio #5ID : 4356 (0x1104)Menu ID : 1 (0x1)Format : AC-3Format/Info : Audio Coding 3Mode extension : CM (complete main)Format settings, Endianness : BigCodec ID : 129Duration : 2h 8mnBit rate mode : ConstantBit rate : 448 KbpsChannel(s) : 6 channelsChannel positions : Front: L C R, Side: L R, LFESampling rate : 48.0 KHzBit depth : 16 bitsCompression mode : LossyStream size : 411 MiB (1%)Language : Ukrainian
Audio #6ID : 4357 (0x1105)Menu ID : 1 (0x1)Format : DTSFormat/Info : Digital Theater SystemsFormat profile : MA / CoreMuxing mode : Stream extensionCodec ID : 134Duration : 2h 8mnBit rate mode : VariableBit rate : 3 412 Kbps / 1 510 KbpsChannel(s) : 6 channelsChannel positions : Front: L C R, Side: L R, LFESampling rate : 48.0 KHzBit depth : 24 bitsCompression mode : Lossless / LossyLanguage : English
Text #1ID : 4608 (0x1200)Menu ID : 1 (0x1)Format : PGSCodec ID : 144Duration : 2h 8mnDelay relative to video : 71msLanguage : Russian
Text #2ID : 4609 (0x1201)Menu ID : 1 (0x1)Format : PGSCodec ID : 144Language : English

Скриншоты

[Торрент-статистика]
[Профиль]  [ЛС] 
Показать сообщения:    
Ответить на тему

Текущее время: Сегодня 14:49

Часовой пояс: GMT + 4



Вы не можете начинать темы
Вы не можете отвечать на сообщения
Вы не можете редактировать свои сообщения
Вы не можете удалять свои сообщения
Вы не можете голосовать в опросах
Вы не можете прикреплять файлы к сообщениям
Вы не можете скачивать файлы