Моя Супер-бывшая / My Super Ex-Girlfriend (Айвэн Рейтман) [2006 г., комедия, BDRip 720p]

Ответить на тему
 
Автор
Сообщение

awk05 ®

Пол:

Стаж: 5 лет 3 месяца

Сообщений: 1352

Репутация: 275 [+] [-]

Откуда: Западная Украина Ривне

Пост 21-Янв-2014 07:37

[Цитировать] 

--Моя Супер-бывшая / My Super Ex-Girlfriend--"Он разбил ее сердце. Она разрушила его жизнь."-- Год выпуска: 2006
Страна: США
Жанр: комедия
Продолжительность: 01:36:35
Перевод: Профессиональный (полное дублирование)
Русские субтитры: нет--
Режиссер: Айвэн Рейтман--
В ролях: Ума Турман, Люк Уилсон, Анна Фарис, Рэйнн Уилсон, Эдди Иззард, Стелио Саванте, Майк Йорио, Марк Консуэлос, Ванда Сайкс, Маргарет Энн Флоренс, Эва Вероника, Лоренс Фини, Луи Бонаки, Джефф Норрис, Грег Нортроп--
Описание: Расставаться всегда тяжело, но иногда это еще и невероятно опасно. Встретив красавицу Дженни Джонсон, Мэтт Сондерс думает, что он наконец-то нашел женщину своей мечты. Однако, убедившись в том, что она настоящий супермен в юбке, Мэтт решает с ней расстаться, тем более что Дженни становится чересчур навязчивой и требовательной.
Но оказалось, что порвать с женщиной-суперменом не так-то легко. Чувствуя себя униженной и оскорбленной, Дженни использует все свои сверхъестественные способности, чтобы не только положить конец развивающемуся роману Мэтта с его сослуживицей Ханной, но и превратить жизнь своего «бывшего» в сущий ад…--

Качество: BDRip
Формат: MKV
Видео кодек:H.264
Аудио кодек: AC3, DTS
Видео: 1280x528 (2.40:1), 23,976 кадра/сек, 4972 Кбит/сек, 0.307 Бит/(Пиксели*Кадры)
Аудио 1: 6 каналов Front: L C R, Side: L R, LFE, 48,0 КГц, 384 Кбит/сек /Russian/
Аудио 2: 6 каналов Front: L C R, Side: L R, LFE, 48,0 КГц, 1509 Кбит/сек /English/--

MediaInfo

Общее
Уникальный идентификатор : 170460907240616088123754059720573163074 (0x803D93997335A56E9BC5F215B43D9642)
Полное имя : D:\раздачи\Moja Super bivshaja_720p.mkv
Формат : Matroska
Версия формата : Version 1
Размер файла : 4,63 Гбайт
Продолжительность : 1 ч. 36 м.
Общий поток : 6868 Кбит/сек
Дата кодирования : UTC 2008-07-17 19:45:46
Программа кодирования : mkvmerge v2.1.0 ('Another Place To Fall') built on Aug 19 2007 13:40:07
Библиотека кодирования : libebml v0.7.7 + libmatroska v0.8.1
Видео
Идентификатор : 1
Формат : AVC
Формат/Информация : Advanced Video Codec
Профиль формата : High@L5.1
Параметр CABAC формата : Да
Параметр ReFrames формата : 5 кадров
Идентификатор кодека : V_MPEG4/ISO/AVC
Продолжительность : 1 ч. 36 м.
Битрейт : 4972 Кбит/сек
Ширина : 1280 пикселей
Высота : 528 пикселей
Соотношение сторон : 2,40:1
Режим частоты кадров : Постоянный
Частота кадров : 23,976 кадра/сек
Цветовое пространство : YUV
Субдискретизация насыщенности : 4:2:0
Битовая глубина : 8 бит
Тип развёртки : Прогрессивная
Бит/(Пиксели*Кадры) : 0.307
Размер потока : 3,26 Гбайт (70%)
Библиотека кодирования : x264 core 60 r913 64848ff
Настройки программы : cabac=1 / ref=5 / deblock=1:0:0 / analyse=0x3:0x113 / me=umh / subme=7 / brdo=1 / mixed_ref=1 / me_range=16 / chroma_me=1 / trellis=1 / 8x8dct=1 / cqm=0 / deadzone=21,11 / chroma_qp_offset=0 / threads=6 / nr=0 / decimate=1 / mbaff=0 / bframes=3 / b_pyramid=1 / b_adapt=1 / b_bias=0 / direct=1 / wpredb=1 / bime=1 / keyint=250 / keyint_min=25 / scenecut=40(pre) / rc=2pass / bitrate=4972 / ratetol=1.0 / rceq='blurCplx^(1-qComp)' / qcomp=1.00 / qpmin=10 / qpmax=51 / qpstep=4 / cplxblur=20.0 / qblur=0.5 / ip_ratio=1.40 / pb_ratio=1.30 / aq=2:1.00
Язык : English
Default : Да
Forced : Нет
Аудио #1
Идентификатор : 2
Формат : AC-3
Формат/Информация : Audio Coding 3
Расширение режима : CM (complete main)
Параметр Endianness формата : Big
Идентификатор кодека : A_AC3
Продолжительность : 1 ч. 36 м.
Вид битрейта : Постоянный
Битрейт : 384 Кбит/сек
Каналы : 6 каналов
Расположение каналов : Front: L C R, Side: L R, LFE
Частота : 48,0 КГц
Битовая глубина : 16 бит
Метод сжатия : С потерями
Размер потока : 265 Мбайт (6%)
Заголовок : AC3_5.1_384kbps
Язык : Russian
Default : Да
Forced : Нет
Аудио #2
Идентификатор : 3
Формат : DTS
Формат/Информация : Digital Theater Systems
Режим : 16
Параметр Endianness формата : Big
Идентификатор кодека : A_DTS
Продолжительность : 1 ч. 36 м.
Вид битрейта : Постоянный
Битрейт : 1509 Кбит/сек
Каналы : 6 каналов
Расположение каналов : Front: L C R, Side: L R, LFE
Частота : 48,0 КГц
Битовая глубина : 24 бит
Метод сжатия : С потерями
Размер потока : 1,02 Гбайт (22%)
Заголовок : DTS_5.1_1536kbps
Язык : English
Default : Нет
Forced : Нет

_________________
[Торрент-статистика]
[Профиль]  [ЛС] 
Показать сообщения:    
Ответить на тему

Текущее время: Сегодня 14:48

Часовой пояс: GMT + 4



Вы не можете начинать темы
Вы не можете отвечать на сообщения
Вы не можете редактировать свои сообщения
Вы не можете удалять свои сообщения
Вы не можете голосовать в опросах
Вы не можете прикреплять файлы к сообщениям
Вы не можете скачивать файлы