Меняющие реальность / The Adjustment Bureau (Джордж Нолфи / George Nolfi) [2011, США, фантастика, триллер, мелодрама, BDRip 1080p] Dub + Sub (Rus, Ukr, Eng) + Original Eng

Ответить на тему
 
Автор
Сообщение

awk05 ®

Пол:

Стаж: 4 года 5 месяцев

Сообщений: 1352

Репутация: 275 [+] [-]

Откуда: Западная Украина Ривне

Пост 21-Янв-2014 03:57

[Цитировать] 

--Меняющие реальность / The Adjustment Bureau
«Ради нее он готов изменить мир»
--
Год выпуска: 2011
Выпущено: США / Universal Pictures
Жанр: фантастика, триллер, мелодрама
Продолжительность: 01:45:50
Перевод: Профессиональный (дублированный) |BluRay CEE|
Cубтитры: русские, украинские, английские
Оригинальная аудиодорожка: английский--Режиссер: Джордж Нолфи / George Nolfi--В ролях: Мэтт Дэймон / Matt Damon, Эмили Блант / Emily Blunt, Энтони Маки / Anthony Mackie, Джон Слэттери / John Slattery, Теренс Стэмп / Terence Stamp, Майкл Келли / Michael Kelly, Лиза Торсон / Lisa Thoreson, Флоренс Кастринер / Florence Kastriner, Филис Макбрид / Phyllis MacBryde, Натали Картер / Natalie Carter--Описание: Волею случая конгрессмен Дэвид Норрис узнает, что мир движется по заранее написанному плану, за исполнением которого следят работающие в неком Бюро Корректировки люди в шляпах, обладающие сверхъестественными способностями. Как назло, план не предусматривает дальнейших пересечений с балериной Элизой, в которую политик влюблен. Дэвид заручается поддержкой одного из агентов Бюро и начинает неравную борьбу с остальными, отстаивая свободу выбора и личное счастье…--Качество: BDRip 1080p
Формат: AVI
Видео кодек: AVC High@L4.1
Аудио кодек: AC3
Видео: 1920x1040 (1,85:1), 23.976 fps, x264@L4.1, 2pass, ~12015 kbps avgl 0.251 Бит/(Пиксели*Кадры)
Аудио 1: Russian: 48 kHz, DTS, 3/2 (L,C,R,l,r) + LFE ch, ~768.00 kbps avg |Дубляж, Blu-ray CEE|
Аудио 2: English: 48 kHz, DTS, 3/2 (L,C,R,l,r) + LFE ch, ~1536.00 kbps avg
Аудио 3: English: 48 kHz, AC3, 2/0 (L,R) ch, ~192.00 kbps avg |Commentary by Writer-Director George Nolfi|
Аудио 4: English: 48 kHz, AC3, 2/0 (L,R) ch, ~192.00 kbps avg |Descriptive|
Субтитры: Russian: forced, full voronin, commentary; Ukr: full; English: full, commentary
Формат субтитров: softsub (SRT)-- --

MediaInfo

Общее
Уникальный идентификатор : 200733329744962885509253446494711646059 (0x9703D5435EC74A48A393E4A471CF076B)
Полное имя : D:\раздачи\The.Adjustment.Bureau.2011.1080p.BluRay.Rus.2xEng.HDCLUB.mkv
Формат : Matroska
Версия формата : Version 2
Размер файла : 10,9 Гбайт
Продолжительность : 1 ч. 45 м.
Общий поток : 14,7 Мбит/сек
Название фильма : The Adjustment Bureau (2011) - Release for HDCLUB
Дата кодирования : UTC 2011-12-19 13:41:01
Программа кодирования : mkvmerge v5.2.0 ('I can't explain') built on Dec 18 2011 18:12:03
Библиотека кодирования : libebml v1.2.3 + libmatroska v1.3.0
Видео
Идентификатор : 1
Формат : AVC
Формат/Информация : Advanced Video Codec
Профиль формата : High@L4.1
Параметр CABAC формата : Да
Параметр ReFrames формата : 4 кадра
Идентификатор кодека : V_MPEG4/ISO/AVC
Продолжительность : 1 ч. 45 м.
Битрейт : 12,0 Мбит/сек
Ширина : 1920 пикселей
Высота : 1040 пикселей
Соотношение сторон : 1,85:1
Режим частоты кадров : Постоянный
Частота кадров : 23,976 кадра/сек
Цветовое пространство : YUV
Субдискретизация насыщенности : 4:2:0
Битовая глубина : 8 бит
Тип развёртки : Прогрессивная
Бит/(Пиксели*Кадры) : 0.251
Размер потока : 8,67 Гбайт (80%)
Заголовок : The Adjustment Bureau
Библиотека кодирования : x264 core 114 r1924 08d04a4
Настройки программы : cabac=1 / ref=4 / deblock=1:-3:-3 / analyse=0x3:0x113 / me=umh / subme=10 / psy=1 / psy_rd=1.05:0.10 / mixed_ref=1 / me_range=48 / chroma_me=1 / trellis=2 / 8x8dct=1 / cqm=2 / deadzone=21,11 / fast_pskip=0 / chroma_qp_offset=-2 / threads=12 / sliced_threads=0 / nr=0 / decimate=1 / interlaced=0 / constrained_intra=0 / bframes=6 / b_pyramid=2 / b_adapt=2 / b_bias=0 / direct=3 / weightb=1 / open_gop=0 / weightp=2 / keyint=250 / keyint_min=23 / scenecut=40 / intra_refresh=0 / rc_lookahead=60 / rc=2pass / mbtree=1 / bitrate=12015 / ratetol=1.0 / qcomp=0.70 / qpmin=1 / qpmax=63 / qpstep=4 / cplxblur=20.0 / qblur=0.5 / vbv_maxrate=40000 / vbv_bufsize=40000 / nal_hrd=none / ip_ratio=1.40 / aq=2:0.80
Язык : English
Default : Нет
Forced : Нет
Аудио #1
Идентификатор : 2
Формат : DTS
Формат/Информация : Digital Theater Systems
Режим : 16
Параметр Endianness формата : Big
Идентификатор кодека : A_DTS
Продолжительность : 1 ч. 45 м.
Вид битрейта : Постоянный
Битрейт : 768 Кбит/сек
Каналы : 6 каналов
Расположение каналов : Front: L C R, Side: L R, LFE
Частота : 48,0 КГц
Битовая глубина : 24 бит
Метод сжатия : С потерями
Размер потока : 581 Мбайт (5%)
Заголовок : DTS 6ch 768 kbps |Dub BluRay CEE|
Язык : Russian
Default : Да
Forced : Нет
Аудио #2
Идентификатор : 3
Формат : DTS
Формат/Информация : Digital Theater Systems
Режим : 16
Параметр Endianness формата : Big
Идентификатор кодека : A_DTS
Продолжительность : 1 ч. 45 м.
Вид битрейта : Постоянный
Битрейт : 1509 Кбит/сек
Каналы : 6 каналов
Расположение каналов : Front: L C R, Side: L R, LFE
Частота : 48,0 КГц
Битовая глубина : 24 бит
Метод сжатия : С потерями
Задержка видео : 11 мс.
Размер потока : 1,12 Гбайт (10%)
Заголовок : DTS 6ch 1536 kbps |Eng|
Язык : English
Default : Нет
Forced : Нет
Аудио #3
Идентификатор : 4
Формат : AC-3
Формат/Информация : Audio Coding 3
Профиль формата : Dolby Digital
Расширение режима : CM (complete main)
Параметр Endianness формата : Big
Идентификатор кодека : A_AC3
Продолжительность : 1 ч. 45 м.
Вид битрейта : Постоянный
Битрейт : 192 Кбит/сек
Каналы : 2 канала
Расположение каналов : Front: L R
Частота : 48,0 КГц
Битовая глубина : 16 бит
Метод сжатия : С потерями
Размер потока : 145 Мбайт (1%)
Заголовок : AC3 2ch 192 kbps |Commentary Writer-Director George Nolfi|
Язык : English
Default : Нет
Forced : Нет
Аудио #4
Идентификатор : 5
Формат : AC-3
Формат/Информация : Audio Coding 3
Профиль формата : Dolby Digital
Расширение режима : CM (complete main)
Параметр Endianness формата : Big
Идентификатор кодека : A_AC3
Продолжительность : 1 ч. 45 м.
Вид битрейта : Постоянный
Битрейт : 192 Кбит/сек
Каналы : 2 канала
Расположение каналов : Front: L R
Частота : 48,0 КГц
Битовая глубина : 16 бит
Метод сжатия : С потерями
Размер потока : 145 Мбайт (1%)
Заголовок : AC3 2ch 192 kbps |Descriptive|
Язык : English
Default : Нет
Forced : Нет
Текст #1
Идентификатор : 6
Формат : UTF-8
Идентификатор кодека : S_TEXT/UTF8
Идентификатор кодека/Информация : UTF-8 Plain Text
Заголовок : sub rus |Forced|
Язык : Russian
Default : Да
Forced : Да
Текст #2
Идентификатор : 7
Формат : UTF-8
Идентификатор кодека : S_TEXT/UTF8
Идентификатор кодека/Информация : UTF-8 Plain Text
Заголовок : sub rus |Voronine|
Язык : Russian
Default : Нет
Forced : Нет
Текст #3
Идентификатор : 8
Формат : UTF-8
Идентификатор кодека : S_TEXT/UTF8
Идентификатор кодека/Информация : UTF-8 Plain Text
Заголовок : sub ukr |R5|
Язык : Ukrainian
Default : Нет
Forced : Нет
Текст #4
Идентификатор : 9
Формат : UTF-8
Идентификатор кодека : S_TEXT/UTF8
Идентификатор кодека/Информация : UTF-8 Plain Text
Заголовок : sub rus |Commentary Writer-Director George Nolfi|
Язык : Russian
Default : Нет
Forced : Нет
Текст #5
Идентификатор : 10
Формат : UTF-8
Идентификатор кодека : S_TEXT/UTF8
Идентификатор кодека/Информация : UTF-8 Plain Text
Заголовок : sub eng
Язык : English
Default : Нет
Forced : Нет
Текст #6
Идентификатор : 11
Формат : UTF-8
Идентификатор кодека : S_TEXT/UTF8
Идентификатор кодека/Информация : UTF-8 Plain Text
Заголовок : sub eng |Commentary Writer-Director George Nolfi|
Язык : English
Default : Нет
Forced : Нет
Меню
00:00:00.000 : :Chapter 01
00:06:37.772 : :Chapter 02
00:14:17.481 : :Chapter 03
00:20:58.215 : :Chapter 04
00:28:35.547 : :Chapter 05
00:31:11.494 : :Chapter 06
00:35:22.245 : :Chapter 07
00:38:58.836 : :Chapter 08
00:43:07.001 : :Chapter 09
00:51:35.050 : :Chapter 10
00:58:33.009 : :Chapter 11
01:02:14.981 : :Chapter 12
01:07:32.089 : :Chapter 13
01:12:00.649 : :Chapter 14
01:14:13.490 : :Chapter 15
01:19:47.574 : :Chapter 16
01:24:11.546 : :Chapter 17
01:30:00.603 : :Chapter 18
01:35:53.748 : :Chapter 19
01:38:54.470 : :Chapter 20

_________________
[Торрент-статистика]
[Профиль]  [ЛС] 
Показать сообщения:    
Ответить на тему

Текущее время: Сегодня 14:50

Часовой пояс: GMT + 4



Вы не можете начинать темы
Вы не можете отвечать на сообщения
Вы не можете редактировать свои сообщения
Вы не можете удалять свои сообщения
Вы не можете голосовать в опросах
Вы не можете прикреплять файлы к сообщениям
Вы не можете скачивать файлы