Марли и я / Marley & Me (Дэвид Франкель) [2008 г., мелодрама, комедия, драма, BDRip 720p]

Ответить на тему
 
Автор
Сообщение

awk05 ®

Пол:

Стаж: 8 лет 10 месяцев

Сообщений: 1334

Репутация: 278 [+] [-]

Откуда: Западная Украина Ривне

Пост 20-Янв-2014 23:48

[Цитировать] 

--Марли и я / Marley & Me--
Год выпуска: 2008
Страна: США
Жанр: мелодрама, комедия, драма
Продолжительность: 01:55:33
Перевод: Профессиональный (полное дублирование) + Оригинал (english)
Русские субтитры: Russian, UTF-8--Режиссер: Дэвид Франкель--В ролях: Оуэн Уилсон / John Grogan, Дженнифер Энистон / Jenny, Эрик Дэйн / Sebastian Tunney, Кэтлин Тёрнер /Ms. Kornblut, Алан Аркин / Arnie Klein, Натан Гэмбл / Patrick, Хейли Беннетт / Lisa
--Описание: Фильм основан на одноименной книге мемуаров журналиста Джона Грогана о том, как это — жить с самой непослушной собакой на Земле. Вскоре после свадьбы Джон и Дженни Гроган переезжают из холодного Мичигана во Флориду, где оба начинают работать газетными репортёрами. Чтобы проверить, готовы ли они завести ребёнка, они решают сначала завести собаку, последовав совету своих близких друзей. На самом же деле оказывается, что выбранная ими же самими собака крайне вредная и пытается разными выходками перевоспитать своих несчастных хозяев!--Качество: BDRip
Формат: MKV
Видео кодек: AVC
Аудио кодек: AC3
Видео: 1280x544 (2,35:1), 3768 Кбит/сек, 23.976 кадр/сек,0.226 бит/(Пиксели*Кадры)
Аудио1: 6 каналов Front: L C R, Side: L R, LFE, 48,0 КГц, 448 Кбит/сек - русский
Аудио2: 6 каналов Front: L C R, Side: L R, LFE, 48,0 КГц, 640 Кбит/сек - английский-- --

Знаете ли вы, что...

* Главного героя Марли сыграли двадцать два различных пса.
* Родителей героя Оуэна Уилсона сыграли его настоящие родители.
* Главного героя, — Джона Грогана, — назвали в честь писателя книги, мотив которой был использован в этом фильме.
* Автор книги, по которой был снят фильм (Джон Гроган), появился в камео-роли владельца кокер-спаниеля в сцене урока дрессировки собак.
* Дэвид Франкель хотел, чтобы природа в фильме отражала стадии собачьей жизни, и ему было особенно важно показать разноцветную и красочную осень. * Снимать осенью, однако не получилось, и съемки назначили на позднюю весну, когда деревья покрываются листвой. Ярко-зеленый цвет листьев позднее изменили специалисты студии Pixel Magic, обрабатывая каждое дерево индивидуально.
* Пёс Марли получил свою кличку в честь известного ямайского музыканта Боба Марли.
* Гонорар Дженнифер Энистон составил $ 8 миллионов.
* Фильм был упомянут в сериале «Доктор Хаус» в 23 серии 7 сезона, когда Хаус отдавал вещи Кадди, среди которых был диск с фильмом «Марли и я». Ещё Хаус сказал что Кадди «мастурбирует» на главного героя фильма Оуэна Уилсона.
* В фильме звучат песни группы Nirvana Lithium и Come as You Are, а также песня R.E.M. Shiny Happy People.

MediaInfo

Общее
Уникальный идентификатор : 202675138458220126851478435596680538232 (0x9879CFD30A0438B68D2AF4AEDC37A878)
Полное имя : D:\раздачи\marley_and_me.mkv
Формат : Matroska
Версия формата : Version 1
Размер файла : 3,92 Гбайт
Продолжительность : 1 ч. 55 м.
Общий поток : 4860 Кбит/сек
Дата кодирования : UTC 2009-05-13 09:13:57
Программа кодирования : mkvmerge v2.0.2 ('You're My Flame') built on Feb 21 2007 23:40:55
Библиотека кодирования : libebml v0.7.7 + libmatroska v0.8.1
Видео
Идентификатор : 1
Формат : AVC
Формат/Информация : Advanced Video Codec
Профиль формата : High@L4.1
Параметр CABAC формата : Да
Параметр ReFrames формата : 4 кадра
Параметр GOP формата : N=1
Идентификатор кодека : V_MPEG4/ISO/AVC
Продолжительность : 1 ч. 55 м.
Битрейт : 3768 Кбит/сек
Ширина : 1280 пикселей
Высота : 544 пикселя
Соотношение сторон : 2,35:1
Соотношение сторон в оригинале : 2,35:1
Режим частоты кадров : Постоянный
Частота кадров : 23,976 кадра/сек
Цветовое пространство : YUV
Субдискретизация насыщенности : 4:2:0
Битовая глубина : 8 бит
Тип развёртки : Прогрессивная
Бит/(Пиксели*Кадры) : 0.226
Размер потока : 2,97 Гбайт (76%)
Библиотека кодирования : x264 core 67 r1139M 1024283
Настройки программы : cabac=1 / ref=4 / deblock=1:-3:-3 / analyse=0x3:0x113 / me=umh / subme=9 / psy_rd=0.8:0.8 / mixed_ref=1 / me_range=24 / chroma_me=1 / trellis=2 / 8x8dct=1 / cqm=0 / deadzone=21,11 / chroma_qp_offset=-4 / threads=3 / nr=0 / decimate=1 / mbaff=0 / bframes=3 / b_pyramid=1 / b_adapt=1 / b_bias=0 / direct=3 / wpredb=1 / keyint=250 / keyint_min=25 / scenecut=40 / rc=2pass / bitrate=3768 / ratetol=1.0 / qcomp=0.60 / qpmin=10 / qpmax=51 / qpstep=4 / cplxblur=20.0 / qblur=0.5 / vbv_maxrate=40000 / vbv_bufsize=40000 / ip_ratio=1.40 / pb_ratio=1.30 / aq=1:1.00
Default : Да
Forced : Нет
Аудио #1
Идентификатор : 2
Формат : AC-3
Формат/Информация : Audio Coding 3
Расширение режима : CM (complete main)
Параметр Endianness формата : Big
Идентификатор кодека : A_AC3
Продолжительность : 1 ч. 55 м.
Вид битрейта : Постоянный
Битрейт : 448 Кбит/сек
Каналы : 6 каналов
Расположение каналов : Front: L C R, Side: L R, LFE
Частота : 48,0 КГц
Битовая глубина : 16 бит
Метод сжатия : С потерями
Размер потока : 370 Мбайт (9%)
Язык : Russian
Default : Да
Forced : Нет
Аудио #2
Идентификатор : 3
Формат : AC-3
Формат/Информация : Audio Coding 3
Расширение режима : CM (complete main)
Параметр Endianness формата : Big
Идентификатор кодека : A_AC3
Продолжительность : 1 ч. 55 м.
Вид битрейта : Постоянный
Битрейт : 640 Кбит/сек
Каналы : 6 каналов
Расположение каналов : Front: L C R, Side: L R, LFE
Частота : 48,0 КГц
Битовая глубина : 16 бит
Метод сжатия : С потерями
Размер потока : 529 Мбайт (13%)
Язык : English
Default : Нет
Forced : Нет
Текст
Идентификатор : 4
Формат : UTF-8
Идентификатор кодека : S_TEXT/UTF8
Идентификатор кодека/Информация : UTF-8 Plain Text
Язык : Russian
Default : Да
Forced : Нет

_________________
[Торрент-статистика]
[Профиль]  [ЛС] 

Пост 21-Янв-2014 00:17 (спустя 29 минут)

Топик был перенесен из форума Фильмы 2005-2009 в форум Зарубежное кино (HD Video)
ArtZak
 
Показать сообщения:    
Ответить на тему

Текущее время: Сегодня 06:29

Часовой пояс: GMT + 4



Вы не можете начинать темы
Вы не можете отвечать на сообщения
Вы не можете редактировать свои сообщения
Вы не можете удалять свои сообщения
Вы не можете голосовать в опросах
Вы не можете прикреплять файлы к сообщениям
Вы не можете скачивать файлы