Линкольн для адвоката / The Lincoln Lawyer (Брэд Фурман / Brad Furman) [2011 г.] (триллер, драма, криминал) [BDRip, 720p] AVO (Гаврилов) + Original

Ответить на тему
 
Автор
Сообщение

anton966 ®

Пол:

Стаж: 4 года 11 месяцев

Сообщений: 24

Репутация: 0 [+] [-]

Пост 20-Дек-2011 12:15

[Цитировать] 

Линкольн для адвоката / The Lincoln Lawyer
Год выпуска: 2011
Производство: США
Жанр: триллер, драма, криминал
Продолжительность: 01:58:29
Перевод: Авторский (одноголосый) Андрей Гаврилов + оригинальная английская дорожка

Режиссер: Брэд Фурман / Brad Furman
В ролях: Мэттью МакКонахи, Мариса Томей, Райан Филипп, Уильям Х. Мэйси, Джош Лукас, Джон Легуизамо, Майкл Пенья, Боб Гантон, Фрэнсис Фишер, Брайан Крэнстон
Описание: Адвокат Микки Хэллер, который практически живет в своем «Линкольне» и все бумаги держит на заднем сидении автомобиля, большую часть карьеры занимался тем, что защищал мелких сошек, но вот ему подвернулось дело всей жизни: его нанимает известный плэйбой из Беверли-Хиллз, которого обвиняют в убийстве. Неожиданный шанс оборачивается для Хэллера игрой на выживание.
Доп. инфо: За видео файл спасибо Talian70. Дорожка с переводом Гаврилова с "чистого" голоса.
За перевод у А.Гаврилова премного благодарен исключительно , т.к. средства собраны исключительно на пиратке данными спонсорами:
KSs
dunhill200
lexal2002
Chistobaev
Джосс
Pain_70
bond-street
pestel
audiolubitel
Fess Necromant
alent1204
Nort1989
ОлегКиев
edsz
therox

Качество: BDRip 720p [CtrlHD]
Формат: MKV
Стандарт разрешения: 720p
Видео кодек: H.26x
Аудио кодек: AC3
Видео: AVC, 1280x544 (2.35:1), 23.976 fps, 6 415 Kbps (0.384 bit/pixel)
Аудио#1: AC-3, 48.0 KHz, 6 ch, 448 Kbps, CBR (Russian)
Аудио#2: AC-3, 48.0 KHz, 6 ch, 448 Kbps, CBR (English)
Чаптеры: есть

Media Info

Полное имя : C:\The.Lincoln.Lawyer.2011.720p.BluRay.Gavrilov.Eng.mkv
Формат : Matroska
Версия формата : Version 2
Размер файла : 6,05 Гбайт
Продолжительность : 1 ч. 58 м.
Общий поток : 7311 Кбит/сек
Название фильма : Линкольн для адвоката / The Lincoln Lawyer
Дата кодирования : UTC 2011-08-18 14:42:11
Программа кодирования : mkvmerge v2.9.7 ('Tenderness') built on Jul 1 2009 18:43:35
Библиотека кодирования : libebml v0.7.7 + libmatroska v0.8.1
Видео
Идентификатор : 1
Формат : AVC
Формат/Информация : Advanced Video Codec
Профиль формата : High@L4.1
Параметр CABAC формата : Да
Параметр ReFrames формата : 9 кадров
Идентификатор кодека : V_MPEG4/ISO/AVC
Продолжительность : 1 ч. 58 м.
Битрейт : 6415 Кбит/сек
Ширина : 1280 пикселей
Высота : 544 пикселя
Соотношение сторон : 2,35:1
Частота кадров : 23,976 кадра/сек
Цветовое пространство : YUV
Субдискретизация насыщенности : 4:2:0
Битовая глубина : 8 бит
Тип развёртки : Прогрессивная
Бит/(Пиксели*Кадры) : 0.384
Размер потока : 5,19 Гбайт (86%)
Заголовок : The Lincoln Lawyer 2011 720p BluRay x264 DTS-CtrlHD
Библиотека кодирования : x264 core 115 r2008 4c552d8
Настройки программы : cabac=1 / ref=9 / deblock=1:-2:-2 / analyse=0x3:0x133 / me=umh / subme=10 / psy=1 / psy_rd=1.00:0.00 / mixed_ref=1 / me_range=32 / chroma_me=1 / trellis=2 / 8x8dct=1 / cqm=0 / deadzone=21,11 / fast_pskip=1 / chroma_qp_offset=-2 / threads=12 / sliced_threads=0 / nr=0 / decimate=1 / interlaced=0 / bluray_compat=0 / constrained_intra=0 / bframes=3 / b_pyramid=2 / b_adapt=2 / b_bias=0 / direct=3 / weightb=1 / open_gop=1 / weightp=2 / keyint=250 / keyint_min=23 / scenecut=40 / intra_refresh=0 / rc_lookahead=60 / rc=2pass / mbtree=1 / bitrate=6415 / ratetol=1.0 / qcomp=0.60 / qpmin=0 / qpmax=69 / qpstep=4 / cplxblur=20.0 / qblur=0.5 / ip_ratio=1.40 / aq=1:1.00
Язык : English
Аудио #1
Идентификатор : 2
Формат : AC-3
Формат/Информация : Audio Coding 3
Расширение режима : CM (complete main)
Идентификатор кодека : A_AC3
Продолжительность : 1 ч. 58 м.
Вид битрейта : Постоянный
Битрейт : 448 Кбит/сек
Каналы : 6 каналов
Расположение каналов : Front: L C R, Side: L R, LFE
Частота : 48,0 КГц
Битовая глубина : 16 бит
Метод сжатия : С потерями
Размер потока : 380 Мбайт (6%)
Заголовок : Gavrilov
Язык : Russian
Аудио #2
Идентификатор : 3
Формат : AC-3
Формат/Информация : Audio Coding 3
Расширение режима : CM (complete main)
Идентификатор кодека : A_AC3
Продолжительность : 1 ч. 58 м.
Вид битрейта : Постоянный
Битрейт : 448 Кбит/сек
Каналы : 6 каналов
Расположение каналов : Front: L C R, Side: L R, LFE
Частота : 48,0 КГц
Битовая глубина : 16 бит
Метод сжатия : С потерями
Размер потока : 380 Мбайт (6%)
Заголовок : Original
Язык : English
Меню
00:00:00.000 : en:00:00:00.000
00:05:07.015 : en:00:05:07.015
00:16:50.051 : en:00:16:50.051
00:20:06.205 : en:00:20:06.205
00:30:21.987 : en:00:30:21.987
00:38:23.343 : en:00:38:23.343
00:48:25.152 : en:00:48:25.152
00:55:07.221 : en:00:55:07.221
00:59:10.255 : en:00:59:10.255
01:03:16.626 : en:01:03:16.626
01:09:03.931 : en:01:09:03.931
01:15:28.858 : en:01:15:28.858
01:23:21.455 : en:01:23:21.455
01:29:44.045 : en:01:29:44.045
01:37:34.140 : en:01:37:34.140
01:50:00.344 : en:01:50:00.344

Скриншоты










Последний раз редактировалось: anton966 (2011-12-20 13:05), всего редактировалось 1 раз
[Торрент-статистика]
[Профиль]  [ЛС] 

Ратибор

Стаж: 5 лет 1 месяц

Сообщений: 201

Репутация: 10 [+] [-]

Пост 20-Дек-2011 13:02 (спустя 47 минут)

[Цитировать] 

KSs
dunhill200
lexal2002
Chistobaev
Джосс
Pain_70
bond-street
pestel
audiolubitel
Fess Necromant
alent1204
Nort1989
ОлегКиев
edsz
therox
Что это?

_________________

[Торрент-статистика]
[Профиль]  [ЛС] 

anton966 ®

Пол:

Стаж: 4 года 11 месяцев

Сообщений: 24

Репутация: 0 [+] [-]

Пост 20-Дек-2011 13:04 (спустя 1 минута)

[Цитировать] 

Ратибор, Это список людей участвующих денежными средствами в переводе данного фильма у Андрея Юрьевича Гаврилова.
[Торрент-статистика]
[Профиль]  [ЛС] 
Показать сообщения:    
Ответить на тему

Текущее время: Сегодня 14:49

Часовой пояс: GMT + 4



Вы не можете начинать темы
Вы не можете отвечать на сообщения
Вы не можете редактировать свои сообщения
Вы не можете удалять свои сообщения
Вы не можете голосовать в опросах
Вы не можете прикреплять файлы к сообщениям
Вы не можете скачивать файлы