Цифровая радиостанция / The Numbers Station (Каспер Барфоэд / Kasper Barfoed) [2012, Великобритания, США, Бельгия, боевик, триллер, BDRip 1080p] Точка Zрения

Ответить на тему
 
Автор
Сообщение

awk05 ®

Пол:

Стаж: 5 лет 5 месяцев

Сообщений: 1352

Репутация: 275 [+] [-]

Откуда: Западная Украина Ривне

Пост 15-Янв-2014 05:13

[Цитировать] 

--Цифровая радиостанция / The Numbers Station--
Страна: Великобритания, США, Бельгия
Жанр: боевик, триллер
Год выпуска: 2012
Продолжительность: 1:28:55
Перевод: Дубляж Канала Точка Zрения
Cубтитры: отсутствуют--Режиссер: Каспер Барфоэд / Kasper Barfoed--В ролях: Джон Кьюсак, Малин Акерман, Ханна Мюррэй, Лиам Каннингэм, Люси Гриффитс, Ричард Брэйк, Брайан Дик, Джои Анса, Джо Монтана, Макс Беннет--Описание: Эмерсон долгие годы работал на секретную службу правительства. Однако, после допущенной им ошибки, он был переведен на более спокойную работу. Теперь его задачей стало охранять старую американскую базу, существование которой было засекречено. Со времен Второй мировой все секретные агенты получали задания с цифровых станций, однако ни одно из правительств мира не подтверждало их наличие. На базе Эмерсон работает вместе с напарницей, занимающейся обработкой и передачей информации. Это была спокойная монотонная работа, пока база не подверглась атаке. Теперь Эмерсон должен сделать все возможное, чтобы защитить радиостанцию от любой угрозы, ведь если врагам удастся завладеть секретной информацией, то последствия могут быть самыми непредсказуемыми...--Качество видео: BDRip 1080p
Формат видео: MKV
Видео кодек: AVC (Main@L4.0)
Аудио кодек: AC-3
Видео: AVC, 1920х800 (2,40:1), 23,976 fps, ~9000 kbps avg, 0.245 bit/pixel
Аудио 1: AC-3, 48.0 KHz, 2 ch, 192 Kbps, CBR, 16 bits [Русский] -- --

MediaInfo

General
Unique ID : 214846510270369570174691192099458490449 (0xA1A1EEC93514A70DAB8122141EFFA051)
Complete name : E:\Films\Цифровая станция (The Numbers Station) в правильном переводе Канала Точка Zрения.mkv
Format : Matroska
Format version : Version 1
File size : 5.60 GiB
Duration : 1h 28mn
Overall bit rate : 9 015 Kbps
Encoded date : UTC 2014-01-14 14:04:09
Writing application : mkvmerge v1.7.0 ('What Do You Take Me For') built on Apr 28 2006 17:20:19
Writing library : libebml v0.7.7 + libmatroska v0.8.0
Video
ID : 1
Format : AVC
Format/Info : Advanced Video Codec
Format profile : Main@L4.0
Format settings, CABAC : Yes
Format settings, ReFrames : 4 frames
Codec ID : V_MPEG4/ISO/AVC
Duration : 1h 28mn
Bit rate : 9 000 Kbps
Width : 1 920 pixels
Height : 800 pixels
Display aspect ratio : 2.40:1
Frame rate mode : Constant
Frame rate : 23.943 fps
Color space : YUV
Chroma subsampling : 4:2:0
Bit depth : 8 bits
Scan type : Progressive
Bits/(Pixel*Frame) : 0.245
Stream size : 5.37 GiB (96%)
Writing library : x264 core 120
Encoding settings : cabac=1 / ref=1 / deblock=1:0:0 / analyse=0x1:0x111 / me=hex / subme=0 / psy=1 / psy_rd=1.00:0.00 / mixed_ref=0 / me_range=16 / chroma_me=1 / trellis=0 / 8x8dct=0 / cqm=0 / deadzone=21,11 / fast_pskip=1 / chroma_qp_offset=0 / threads=12 / sliced_threads=0 / nr=0 / decimate=1 / interlaced=0 / bluray_compat=0 / constrained_intra=0 / bframes=3 / b_pyramid=2 / b_adapt=1 / b_bias=0 / direct=1 / weightb=1 / open_gop=0 / weightp=1 / keyint=240 / keyint_min=24 / scenecut=40 / intra_refresh=0 / rc_lookahead=10 / rc=abr / mbtree=1 / bitrate=9000 / ratetol=1.0 / qcomp=0.60 / qpmin=3 / qpmax=69 / qpstep=4 / ip_ratio=1.40 / aq=1:1.00
Language : English
Default : Yes
Forced : No
Color primaries : BT.709
Transfer characteristics : BT.709
Matrix coefficients : BT.709
Audio
ID : 2
Format : AC-3
Format/Info : Audio Coding 3
Mode extension : CM (complete main)
Format settings, Endianness : Big
Codec ID : A_AC3
Duration : 1h 28mn
Bit rate mode : Constant
Bit rate : 192 Kbps
Channel count : 2 channels
Channel positions : Front: L R
Sampling rate : 48.0 KHz
Bit depth : 16 bits
Compression mode : Lossy
Stream size : 122 MiB (2%)
Default : Yes
Forced : No
Menu
00:00:00.000 : :Chapter 1
00:08:55.620 : :Chapter 2
00:17:31.719 : :Chapter 3
00:25:58.100 : :Chapter 4
00:33:37.893 : :Chapter 5
00:42:08.278 : :Chapter 6
00:50:37.703 : :Chapter 7
00:59:09.840 : :Chapter 8
01:06:11.094 : :Chapter 9
01:11:15.940 : :Chapter 10
01:18:04.974 : :Chapter 11
01:23:55.699 : :Chapter 12
01:28:54.623 : :Chapter 13

Скриншоты




_________________


Последний раз редактировалось: awk05 (2014-08-20 16:54), всего редактировалось 2 раз(а)
[Торрент-статистика]
[Профиль]  [ЛС] 

Пост 16-Янв-2014 09:04 (спустя 1 день 3 часа)

Топик был перенесен из форума Фильмы 2012-2013 в форум Зарубежное кино (HD Video)
ArtZak
 
Показать сообщения:    
Ответить на тему

Текущее время: Сегодня 04:09

Часовой пояс: GMT + 4



Вы не можете начинать темы
Вы не можете отвечать на сообщения
Вы не можете редактировать свои сообщения
Вы не можете удалять свои сообщения
Вы не можете голосовать в опросах
Вы не можете прикреплять файлы к сообщениям
Вы не можете скачивать файлы