Человек, который изменил всё / Moneyball (Беннетт Миллер / Bennett Miller) [2011, драма, биография, спорт, BDRip, 1080p]

Ответить на тему
 
Автор
Сообщение

diim ®

Пол:

Стаж: 6 лет 2 месяца

Сообщений: 1038

Репутация: 112 [+] [-]

Пост 18-Дек-2011 00:02

[Цитировать] 

Человек, который изменил всё / Moneyball«А что в жизни сделал ты?»Год выпуска: 2011
Страна: США
Жанр: драма, биография, спорт
Продолжительность: 02:13:15
Перевод: Профессиональный (полное дублирование)
Дублёры: Всеволод Кузнецов, Диомид Виноградов, Александр Новиков, Елена Ивасишина , Дмитрий Полонский , Лиза Мартиросова , Олег Форостенко , Дмитрий Курта
Режиссер: Беннетт Миллер / Bennett Miller
Сценарий: Стивен Зэйллян / Steven Zaillian, Аарон Соркин / Aaron Sorkin, Стэн Червин / Stan Chervin, Майкл Льюис / Michael Lewis
В ролях: Брэд Питт, Джона Хилл , Филип Сеймур Хоффман, Робин Райт, Крис Прэтт , Стефен Бишоп , Брент Дженнингс , Кен Медлок , Тэмми Бланчард , Джек МакГи, Вито Руджинис , Ник Сирси
Описание: Фильм по книге Майкла M. Льюиса, изданной в 2003 году, об Оклендской бейсбольной команде и ее генеральном менеджере, Билли Бине. Его цель - создать конкурентоспособную бейсбольную команду, несмотря на финансовые трудности.-Видео: AVC; 1920x1040 (16:9); 9052 Kbps; 23,976 fps; 0,189 bpp
Аудио №1: English; DTS; 1509 Kbps; CBR; 6 ch; 16 bit
Аудио №2: Russian; AC3; 448 Kbps; CBR; 6 ch; 16 bit
Субтитры : English, Russian (forced)

MI

Format : Matroska
Format version : Version 2
File size : 10.2 GiB
Duration : 2h 13mn
Overall bit rate : 11.0 Mbps
Encoded date : UTC 2011-12-17 08:58:25
Writing application : mkvmerge v5.0.1 ('Es ist Sommer') built on Oct 9 2011 11:55:43
Writing library : libebml v1.2.2 + libmatroska v1.3.0
Video
ID : 1
Format : AVC
Format/Info : Advanced Video Codec
Format profile : High@L4.1
Format settings, CABAC : Yes
Format settings, ReFrames : 4 frames
Muxing mode : Header stripping
Codec ID : V_MPEG4/ISO/AVC
Duration : 2h 13mn
Bit rate : 9 052 Kbps
Width : 1 920 pixels
Height : 1 040 pixels
Display aspect ratio : 16:9
Frame rate : 23.976 fps
Color space : YUV
Chroma subsampling : 4:2:0
Bit depth : 8 bits
Scan type : Progressive
Bits/(Pixel*Frame) : 0.189
Stream size : 8.22 GiB (80%)
Writing library : x264 core 120 r2120 0c7dab9
Encoding settings : cabac=1 / ref=4 / deblock=1:-1:-1 / analyse=0x3:0x113 / me=umh / subme=7 / psy=1 / psy_rd=1.00:0.00 / mixed_ref=1 / me_range=16 / chroma_me=1 / trellis=1 / 8x8dct=1 / cqm=0 / deadzone=21,11 / fast_pskip=0 / chroma_qp_offset=-2 / threads=12 / sliced_threads=0 / nr=0 / decimate=1 / interlaced=0 / bluray_compat=0 / constrained_intra=0 / bframes=3 / b_pyramid=2 / b_adapt=2 / b_bias=0 / direct=3 / weightb=1 / open_gop=0 / weightp=2 / keyint=250 / keyint_min=23 / scenecut=40 / intra_refresh=0 / rc_lookahead=40 / rc=2pass / mbtree=1 / bitrate=9052 / ratetol=1.0 / qcomp=0.60 / qpmin=0 / qpmax=69 / qpstep=4 / cplxblur=20.0 / qblur=0.5 / vbv_maxrate=50000 / vbv_bufsize=50000 / nal_hrd=none / ip_ratio=1.40 / aq=1:1.00
Language : English
Audio #1
ID : 2
Format : DTS
Format/Info : Digital Theater Systems
Muxing mode : Header stripping
Codec ID : A_DTS
Duration : 2h 13mn
Bit rate mode : Constant
Bit rate : 1 510 Kbps
Channel(s) : 6 channels
Channel positions : Front: L C R, Side: L R, LFE
Sampling rate : 48.0 KHz
Bit depth : 16 bits
Compression mode : Lossy
Stream size : 1.41 GiB (14%)
Language : English
Audio #2
ID : 4
Format : AC-3
Format/Info : Audio Coding 3
Mode extension : CM (complete main)
Muxing mode : Header stripping
Codec ID : A_AC3
Duration : 2h 13mn
Bit rate mode : Constant
Bit rate : 448 Kbps
Channel(s) : 6 channels
Channel positions : Front: L C R, Side: L R, LFE
Sampling rate : 48.0 KHz
Bit depth : 16 bits
Compression mode : Lossy
Stream size : 427 MiB (4%)
Language : Russian
Text #1
ID : 3
Format : UTF-8
Codec ID : S_TEXT/UTF8
Codec ID/Info : UTF-8 Plain Text
Language : English
Text #2
ID : 5
Format : UTF-8
Codec ID : S_TEXT/UTF8
Codec ID/Info : UTF-8 Plain Text
Language : Russian

Скриншоты

[Торрент-статистика]
[Профиль]  [ЛС] 
Показать сообщения:    
Ответить на тему

Текущее время: Сегодня 10:05

Часовой пояс: GMT + 4



Вы не можете начинать темы
Вы не можете отвечать на сообщения
Вы не можете редактировать свои сообщения
Вы не можете удалять свои сообщения
Вы не можете голосовать в опросах
Вы не можете прикреплять файлы к сообщениям
Вы не можете скачивать файлы