Дело Дойлов / Republic Of Doyle / Сезон: 3 / Серии: 1-13 из 13 (Аллан Хоуко) [2012 г., драма, криминал, комедия, HDTVRip] MVO (Fox Crime)

Ответить на тему
 
Автор
Сообщение

awk05 ®

Пол:

Стаж: 8 лет 4 месяца

Сообщений: 1334

Репутация: 275 [+] [-]

Откуда: Западная Украина Ривне

Пост 27-Окт-2013 15:29

[Цитировать] 

--Дело Дойлов / Republic Of Doyle-- Год выпуска: 2012
Страна: Канада | CBC
Жанр: драма, криминал, комедия
Продолжительность: ~ 42 минуты
Перевод: Профессиональный (многоголосый, закадровый) - Fox Crime
Субтитры: Нет--Режиссёр: Аллан Хоуко--В ролях: Аллан Хоуко, Шон МакГинли, Линда Бойд, Рэйчел Билсон, Кристин Пеллерин и др.--Описание: Вам приходило когда-либо в голову нанять частного детектива? Если да, то идеальное детективное агенство – это «Дойл&Дойл» - агенство отца и сына Джека и Мэлаки Дойлов. Детектив Джейк Дойл готов взяться за самое запутанное дело, в конце концов у него был самый лучший учитель – его отец и партнер Мэлаки Дойл, бывший полицейский старой школы в стиле Коломбо, под внешним добродушием которого прячется железный характер. Агенство «Дойл&Дойл» занимается любыми расследованиями – от супружеской измены, поджогов, судебных ошибок до краж произведений искусств и сбежавших жен.--Качество: HDTVRip
Формат: AVI
Видео кодек: XviD
Аудио кодек: MP3
Видео: 624x352 (16:9), 23.976 fps, ~1000 kbps, ~0.180 bit/pixel
Аудио Rus: 48 kHz, 2 ch, ~128 kbps |Fox Crime|
Аудио Eng: 48 kHz, 2 ch, ~128 kbps |Original|--Релиз:
Работа со звуком: baggio-- --

Герои и персонажи

Отставной полицейский из канадского города Сент-Джонс Малэки Дойл (Шон МакГинли) не стал наслаждаться заслуженным отдыхом в тишине и покое, а открыл свое частное детективное агентство. В партнеры Малэки взял своего младшего сына Джейка (Аллан Хоуко) – также бывшего копа, слегка недотепистого, невезучего в амурных делах и болтливого как сорока, но шустрого и сообразительного, когда обстоятельства принимают угрожающий оборот. Агентство «Дойл энд Дойл» не особо привередливо в выборе клиентов и берется за любые дела, будь то розыск пропавшего много лет назад нерадивого папаши, слежка за неверной женой или конкурентная борьба двух владельцев ресторанов. Но, несмотря на кажущуюся легкость, расследование даже самого пустякового дела частенько помогает раскрыть тяжкие преступления – вымогательства, ограбления и убийства, а порой и предотвратить серьезные судебные ошибки. Вести сыскной бизнес отцу и сыну помогает пассия Дойла-старшего Роуз Миллер (Линда Бойд), которая выполняет обязанности секретарши, ведет всю документацию и бухгалтерию, а также отвечает за техническое оснащение и программное обеспечение расследований. По роду своей деятельности Джейк и его отец частенько сталкиваются с сержантом Королевской полиции, обаятельной блондинкой Роуз Миллер (Линда Бойд), на которую Джейк, находящийся в разводе со своей благоверной – травматологом местной клиники доктором Никки Рейнольдс (Рэйчел Уилсон), уже давно положил глаз. Правда, бракоразводный процесс грозит растянуться на долгие годы, так как супруги никак не решат, хотят ли они развестись или быть вместе, чем изрядно попортили нервы своим адвокатам. Поэтому Джейк и сержант Беннетт, хоть и балансируют на грани романтических отношений, никогда не выходят за рамки делового сотрудничества. Под одной крышей с дедушкой и дядей живет самая юная представительница семейства Дойлов – Тинни (Марта Бернард), дочь Кэтлин, дочери Малэки. Своенравная старшеклассница доставляет немало хлопот своим родственникам, но порой и ее свежий взгляд помогает раскрыть очередное злодеяние. К семейному предприятию Дойлов вскоре присоединился юный художник-граффитист Дес Кортни (Марк О'Брайен), которого раньше Джейк гонял по всему Сент-Джонсу за его художества, покрывавшие не только городские заборы и стены, но и кузов любимого бирюзового «Понтиака» GTO Дойла-младшего. В жизни детективов Дойлов есть место не только работе: они то и дело попадают в различные забавные истории, выясняют отношения друг с другом и со своими близкими, любят приударить за какой-нибудь красоткой или, как истинные ирландцы, пропустить стаканчик-другой. Но как только на пороге возникает очередной клиент, они, забывая обо всем, с головой бросаются в новое расследование.

Список серий

Streets of St. John's
Head Over Heels
Hot Package
Rusted Steele
Dead Man Talking
The Dating Game
High School Confidential
Two Jakes and a Baby
Mirror, Mirror
One Angry Jake

Скриншоты


MediaInfo

Общее
Полное имя : Republic.Of.Doyle.s03e01.HDTVRip.NewStudio.TV.avi
Формат : AVI
Формат/Информация : Audio Video Interleave
Размер файла : 392 Мбайт
Продолжительность : 44 м.
Режим общего битрейта : Переменный
Общий поток : 1230 Кбит/сек
Программа кодирования : VirtualDubMod 1.5.10.2 (build 2540/release)
Библиотека кодирования : VirtualDubMod build 2540/release
Видео
Идентификатор : 0
Формат : MPEG-4 Visual
Профиль формата : Advanced Simple@L5
Параметр BVOP формата : 2
Параметр QPel формата : Нет
Параметр GMC формата : Без точки перехода
Параметр матрицы формата : Default (H.263)
Режим смешивания : Сжатый битовый поток
Идентификатор кодека : XVID
Идентификатор кодека/Подсказка : XviD
Продолжительность : 44 м.
Битрейт : 957 Кбит/сек
Ширина : 624 пикселя
Высота : 352 пикселя
Соотношение сторон : 16:9
Частота кадров : 23,976 кадра/сек
Цветовое пространство : YUV
Субдискретизация насыщенности : 4:2:0
Битовая глубина : 8 бит
Тип развёртки : Прогрессивная
Метод сжатия : С потерями
Бит/(Пиксели*Кадры) : 0.182
Размер потока : 305 Мбайт (78%)
Библиотека кодирования : XviD 64
Аудио #1
Идентификатор : 1
Формат : MPEG Audio
Версия формата : Version 1
Профиль формата : Layer 3
Режим : Joint stereo
Расширение режима : MS Stereo
Идентификатор кодека : 55
Идентификатор кодека/Подсказка : MP3
Продолжительность : 44 м.
Вид битрейта : Переменный
Битрейт : 128 Кбит/сек
Каналы : 2 канала
Частота : 48,0 КГц
Метод сжатия : С потерями
Размер потока : 40,7 Мбайт (10%)
Выравнивание : Соединение по промежуткам
Продолжительность промежутка : 24 мс. (0,58 видеокадр)
Время предзагрузки промежутка : 543 мс.
Аудио #2
Идентификатор : 2
Формат : MPEG Audio
Версия формата : Version 1
Профиль формата : Layer 3
Режим : Joint stereo
Расширение режима : MS Stereo
Идентификатор кодека : 55
Идентификатор кодека/Подсказка : MP3
Продолжительность : 44 м.
Вид битрейта : Постоянный
Битрейт : 128 Кбит/сек
Каналы : 2 канала
Частота : 48,0 КГц
Метод сжатия : С потерями
Размер потока : 40,8 Мбайт (10%)
Выравнивание : Соединение по промежуткам
Продолжительность промежутка : 42 мс. (1,00 видеокадр)
Время предзагрузки промежутка : 504 мс.
«СЕЗОН 1» «СЕЗОН 2» «СЕЗОН 3» «СЕЗОН 4» «СЕЗОН 5»

_________________
[Торрент-статистика]
[Профиль]  [ЛС] 
Показать сообщения:    
Ответить на тему

Текущее время: Сегодня 15:27

Часовой пояс: GMT + 4



Вы не можете начинать темы
Вы не можете отвечать на сообщения
Вы не можете редактировать свои сообщения
Вы не можете удалять свои сообщения
Вы не можете голосовать в опросах
Вы не можете прикреплять файлы к сообщениям
Вы не можете скачивать файлы