Возмездие / Месть / Revenge / Сезон 2 / Серии 1-22(22) (Мэтт Эрл Бисли, Филлип Нойс) [2012 г., драма, WEB-DLRip] DVO (NewStudio)

Ответить на тему
 
Автор
Сообщение

awk05 ®

Пол:

Стаж: 5 лет 3 месяца

Сообщений: 1352

Репутация: 275 [+] [-]

Откуда: Западная Украина Ривне

Пост 09-Дек-2012 18:11

[Цитировать] 

-Возмездие 2 / Revenge 2
-Год выпуска: 2012
Страна: США
Жанр: драма, детектив
Продолжительность: ~00:44:00
Перевод: Профессиональный (многоголосый, закадровый)-Режиссер: Мэтт Эрл Бисли, Филлип Нойс-В ролях: Эмили ВанКэмп (Эмили Торн), Робби Амелл (Adam), Макс Мартини (Frank Stevens), Стефен Эллиотт (The Body), Криста Б. Аллен (Charlotte Grayson), Mike Allison (Party Guest), Ric Bagoly (Yacht Partygoer), Джошуа Боуман (Daniel Grayson), Кристина Чанг (Karrie Thurgood), Генри Черни (Conrad Grayson), Ashley Driver (Tiffany), Кейт Харрис (Doug Reid), Эмили Элин Линд (Abigail)-Описание: В центре сюжета находится богатое семейство Грейсонов, живущих в Хамптонсе, на Лонг-Айленде, Нью-Йорк. Много лет назад Конрад и Виктория Грейсон подставили своего друга, Дэвида Кларка, свалив на него ответственность в организации террористического акта, повлекшего массовые смерти. Дэвид был осужден и умер в тюрьме. Спустя годы, его дочь, Аманда Кларк, возвращается в город под именем Эмили Торн, чтобы отомстить ответственным за гибель отца.- -Перевод: Эрадан
Редакция: GRAFT, Mekc
Озвучка: Константин Погодаев, Ирина Воронова
Подготовка видео: Cherry
Работа со звуком: Cherry
Постер: Vortex-
WEB-DLRip: WEB-DLRip
Контейнер: AVI
Видео кодек: XviD
Аудио кодек: MP3 (MPEG1 Layer 3)
Видео: 720x400 (16/9), 23.976 fps, 1450 Kbps (0.218 bit/pixel)
Аудио: 48 kHz, MPEG Layer 3, 2 ch, 128 kbps avg-КиноПоиск-

Актёры и персонажи

В начале сериала было девять постоянных персонажей: Виктория Грейсон (Мэделин Стоу) — «Королева Хэмптонса», гламурный и властный матриархат семейства Грейсонов; основной антагонист сериала Эмили Торн (Эмили Ванкэмп); гениальный изобретатель программного обеспечения, миллиардер Нолан Росс (Габриэль Манн), который становится союзником Аманды в её отмщении; умный и успешный хедж-менеджер и генеральный директор компании Grayson Global — Конрад Грейсон (Генри Черни), который подставил Дэвида Кларка; амбициозный организатор мероприятий для Виктории Эшли Дэвенпорт (Эшли Мадекви); избалованный сын Виктории и Конрада Дэниэл Грейсон (Джошуа Боуман), у которого имеются проблемы с алкоголем; друг детства Аманды Джек Портер (Ник Векслер), который до сих пор в неё влюблен, но не узнает её в Эмили; семнадцатилетняя дочь Виктории и Конрада Шарлотт Грейсон (Криста Б. Аллен), встречающаяся с бедным парнем Декланом; и Деклан Портер (Коннор Паоло), брат Джека и друг Шарлотт[59]. Главными героями сериала являются Виктория Грейсон, роль которой сыграла Мэделин Стоу, и Эмили Торн/Аманда Кларк в исполнении Эмили ВанКэмп. Виктория является главной целью мести Аманды.

МІ

Расположение: E:\СЕРИАЛЫ\Revenge.s02.NewStudio\revenge.s02e01.webdl_NewStudio.TV.avi
Имя файла: revenge.s02e01.webdl_NewStudio.TV.avi
Формат файла: .avi (AVI)
Размер файла: 550.04 MB
Длительность: 43mn 17s
Навигация по главам: Нет
Bitrate (все потоки): 1 776 Kbps
Тип битрейта (все потоки): Variable
...при помощи: VirtualDubMod 1.5.10.2 (build 2540/release)
...с использованием: VirtualDubMod build 2540/release
Название: revenge.s02e01.webdl_NewStudio.TV
Тип потока: Видео
Длительность: 00:43:17
Кодек: MPEG-4 Visual
Кодек/Профиль: Advanced Simple@L5
Кодек/ID: XVID
Размеры изображения: 720 x 400 (16:9)
Частота кадров: 23.976 fps
Размер потока: 466 MiB (85%)
Битрейт: 1 506 Kbps
Цветовое пространство: YUV
Тип развёртки: Progressive
Bits/(Pixel*Frame): 0.218
Глубина пикселя: 8 bits
Библиотека кодирования: XviD 64
Тип потока: Звук #1
Длительность: 00:43:17.352
Кодек: MPEG Audio
Кодек/ID: 55
Частота дискретизации: 48.0 KHz
Каналы: 2 channels
Битрейт: 128 Kbps
Тип битрейта: Constant
Размер потока: 39.6 MiB (7%)
Тип потока: Звук #2
Длительность: 00:43:17.352
Кодек: MPEG Audio
Кодек/ID: 55
Частота дискретизации: 48.0 KHz
Каналы: 2 channels
Битрейт: 128 Kbps
Тип битрейта: Variable
Размер потока: 38.7 MiB (7%)

Скриншоты

«СЕЗОН 1» «СЕЗОН 2» «СЕЗОН 3» «СЕЗОН 4»

_________________
[Торрент-статистика]
[Профиль]  [ЛС] 
Показать сообщения:    
Ответить на тему

Текущее время: Сегодня 00:08

Часовой пояс: GMT + 4



Вы не можете начинать темы
Вы не можете отвечать на сообщения
Вы не можете редактировать свои сообщения
Вы не можете удалять свои сообщения
Вы не можете голосовать в опросах
Вы не можете прикреплять файлы к сообщениям
Вы не можете скачивать файлы