Белый воротничок / White Collar / Сезон: 1 / Серии: 1-14 (14) (Джон Т. Кречмер, Рассел Ли Файн, Пол Холахан) [2009 г. детектив, криминал, драма, комедия, WEB-DLRip] (Первый канал)

Ответить на тему
 
Автор
Сообщение

awk05 ®

Пол:

Стаж: 8 лет 7 месяцев

Сообщений: 1334

Репутация: 278 [+] [-]

Откуда: Западная Украина Ривне

Пост 09-Янв-2013 23:03

[Цитировать] 

---Белый воротничок / White Collar-- Год выпуска: 2009
Страна: США
Жанр: детектив, криминал, драма, комедия
Сезон/Серия: Сезон:1 /Серия 1-14 из 14
Продолжительность: 14 х ~01:00:00 серия
Перевод: Профессиональный (многоголосый закадровый) + Original
Озвучка / Автор перевода: Первый канал
Субтитры: отсутствуют--Режиссёр: Джон Т. Кречмер, Рассел Ли Файн, Пол Холахан--В ролях: Мэттью Бомер (Neal Caffrey), Тим ДиКэй (Peter Burke), Уилли Гарсон (Mozzie), Тиффани Тиссен (Elizabeth Burke), Шариф Аткинс (Clinton Jones), Марша Томасон (Diana Barrigan), Хилари Бертон (Sara Ellis), Дайэнн Кэррол (June), Джеймс Ребхорн (Reese Hughes), Натали Моралес (Lauren Cruz), Глория Вотсис (Alex Hunter), и др.--Описание: На полицейском сленге "белый воротничок" - это преступник, тщательно избегающий насилия и проворачивающий крупные аферы, полагаясь на ловкость рук, силу своего разума и знание человеческой природы. Речь идет о мастерах, подделывающих знаменитые произведения искусства, финансовых мошенниках и прочих "злых гениях".
Питер Берк, агент ФБР, занимающийся поимкой "воротничков", перетягивает на сторону закона Нила Кэффри, своего вечного оппонента, отбывающего тюремный срок. Девушка Нила, Кейт, попадает в переделку и нуждается в помощи. Кэффри устраивает побег из тюрьмы, но хитроумный Берк его тотчас ловит. Чтобы получить свободу, Кэффри вынужден пойти на сделку. Он носит на ноге датчик слежения и консультирует ФБР в особо щекотливых вопросах по разоблачению и поимке жуликов-интеллектуалов. Взамен его выпускают на поруки. Из фанатичного агента ФБР и экс-афериста, направившего талант в "мирное русло" получился отличный тандем.-Качество видео: WEB-DLRip
Формат видео: AVI
Видео кодек: MPEG4, XviD
Аудио кодек: AC-3
Видео: MPEG4, XviD, 720x400 (16:9), 23.976 fps, 1 521 Kbps (0.220 bit/pixel)
Аудио: AC-3, 48.0 KHz, 2 ch, 192 Kbps, CBR, 16 bits [Русский] -- --

Тех. данные (MI)

Код:
Расположение: E:\СЕРИАЛЫ\White Collar 1-3\White Collar - Season 1 (1 Канал)\White.Collar.1x01.WEB-DLRip.Rus.[www.Riper.AM].avi
Имя файла: White.Collar.1x01.WEB-DLRip.Rus.[www.Riper.AM].avi
Формат файла: .avi (AVI)
Размер файла: 746,66 MB
Длительность: 1h 0mn
Навигация по главам: Нет
Bitrate (все потоки): 1 722 Kbps
...при помощи: VirtualDubModRus 1.5.10.1 (build 2439/release)
...с использованием: VirtualDubMod build 2439/release
Название: White.Collar.1x01.WEB-DLRip.Rus.[www.Riper.AM]
Тип потока: Видео
Длительность: 01:00:37
Кодек: MPEG-4 Visual
Кодек/Профиль: Advanced Simple@L5
Кодек/ID: XVID
Размеры изображения: 720 x 400 (16:9)
Частота кадров: 23.976 fps
Размер потока: 659 MiB (88%)
Битрейт: 1 521 Kbps
Цветовое пространство: YUV
Тип развёртки: Progressive
Bits/(Pixel*Frame): 0.220
Глубина пикселя: 8 bits
Библиотека кодирования: XviD 1.2.0.dev47 (UTC 2006-11-01)
Тип потока: Звук #1
Длительность: 01:00:37.139
Кодек: AC-3
Кодек/ID: 2000
Частота дискретизации: 48.0 KHz
Каналы: 2 channels
Каналы/позиция: Front: L R
Битрейт: 192 Kbps
Тип битрейта: Constant
Размер потока: 83.2 MiB (11%
)

Кадры из фильма

«СЕЗОН 1» «СЕЗОН 2» СЕЗОН 3» «СЕЗОН 4» «СЕЗОН 5»

_________________
[Торрент-статистика]
[Профиль]  [ЛС] 
Показать сообщения:    
Ответить на тему

Текущее время: Сегодня 17:00

Часовой пояс: GMT + 4



Вы не можете начинать темы
Вы не можете отвечать на сообщения
Вы не можете редактировать свои сообщения
Вы не можете удалять свои сообщения
Вы не можете голосовать в опросах
Вы не можете прикреплять файлы к сообщениям
Вы не можете скачивать файлы