Белый воротничок / White Collar / Сезон: 4 / Серии: 1-16 (16) (Джон Т. Кречмер, Рассел Ли Файн, Пол Холахан) [2012 -2013 г., детектив, криминал, драма, комедия, WEB-DLRip 400p] DVO (NewStudio)

Ответить на тему
 
Автор
Сообщение

awk05 ®

Пол:

Стаж: 8 лет 7 месяцев

Сообщений: 1334

Репутация: 278 [+] [-]

Откуда: Западная Украина Ривне

Пост 08-Дек-2012 21:08

[Цитировать] 

--Белый воротничок / White Collar-- Год выпуска: 2012-2013
Страна: США
Жанр: детектив, криминал, драма, комедия
Сезон/Серия: Сезон:4 /Серия 1-16 из 16
Продолжительность: 16 х ~00:43:00 серия
Перевод: Профессиональный (многоголосый закадровый) + Original
Озвучка / Автор перевода: NewStudio
Субтитры: отсутствуют--Режиссёр: Джон Т. Кречмер, Рассел Ли Файн, Пол Холахан--В ролях: Мэттью Бомер (Neal Caffrey), Тим ДиКэй (Peter Burke), Уилли Гарсон (Mozzie), Тиффани Тиссен (Elizabeth Burke), Шариф Аткинс (Clinton Jones), Марша Томасон (Diana Barrigan), Хилари Бертон (Sara Ellis), Дайэнн Кэррол (June), Джеймс Ребхорн (Reese Hughes), Натали Моралес (Lauren Cruz), Глория Вотсис (Alex Hunter), и др.--Описание: Сериал рассказывает о сотрудничестве гениального мошенника и агента ФБР. Нил Кэффри, невероятно обаятельный преступный ум, наконец-то был пойман своим извечным врагом, отличным агентом государственной безопасности Питером Берком. Когда Нил бежит из тюрьмы, чтобы найти свою пропавшую любовь, Питер ловит его еще раз. Нил предлагает ему не торопиться с отправкой в тюрьму, и рассмотреть возможность сотрудничества. Ведь Нил мог бы помочь словить самых “элитных” преступников, “белых воротничков” преступного мира. Питер понимает, что интуиция и преступный опыт Нила, которых нет у законопослушного агента, могут стать хорошим подспорьем в борьбе с криминалом.--Качество видео: WEB-DLRip
Формат видео: AVI
Видео кодек: MPEG4, XviD
Аудио кодек: MP3
Видео: MPEG4, XviD, 624x352 (16:9), 23.976 fps, 1 029 Kbps (0.195 bit/pixel)
Аудио 1: MP3, 48.0 KHz, 2 ch, 128 Kbps, CBR, 16 bits [Русский]
Аудио 2: MP3, 48.0 KHz, 2 ch, 128 Kbps, CBR, 16 bits [Английский] -- --

Герои сериала

Нил Кэффри (Мэтт Бомер) — вор, аферист и мошенник, работающий на ФБР.
Питер Берк (Тим ДиКей) — специальный агент ФБР.
Элизабет Берк (Тиффани-Амбер Тиссен) — жена Питера, организатор торжеств.
Моззи (Уилли Гарсон) — друг Нила, вор и мошенник.
Сара Эллис (Хилари Бартон) — страховой следователь.
Диана Бэрриган (Марша Томасон) — специальный агент ФБР.
Клинтон Джонс (Шариф Аткинс) — специальный агент ФБР.
Джун (Дайан Кэрролл) — домовладелица Нила.
Кейт Моро (Александра Даддарио) — возлюбленная Нила.
Лорен Круз (Натали Моралес) — младший специальный агент ФБР.
Алекс Хантер (Глория Вотсис) — мошенница, подруга и бывшая любовница Нила.
Мэттью Келлер (Росс МакКолл) — давний соперник Нила.
Гаррет Фаулер (Ноа Эммерих) — специальный агент ФБР, работающий на Винсента Адлера.
Риз Хаджес (Джеймс Ребхорн) — специальный агент ФБР.
Винсент Адлер (Эндрю МакКарти) — финансист, охотящийся за сокровищами.

Тех. данные (MI)

Код:
Расположение: E:\СЕРИАЛЫ\White.collar.2012.NewStudio\white.collar.s04e01.web-dl_NewStudio.TV.avi
Имя файла: white.collar.s04e01.web-dl_NewStudio.TV.avi
Формат файла: .avi (AVI)
Размер файла: 399.96 MB
Длительность: 43mn 2s
Навигация по главам: Нет
Bitrate (все потоки): 1 299 Kbps
...при помощи: VirtualDubMod 1.5.10.2 (build 2540/release)
...с использованием: VirtualDubMod build 2540/release
Название: white.collar.s04e01.web-dl_NewStudio.TV
Тип потока: Видео
Длительность: 00:43:02
Кодек: MPEG-4 Visual
Кодек/Профиль: Advanced Simple@L5
Кодек/ID: XVID
Размеры изображения: 624 x 352 (16:9)
Частота кадров: 23.976 fps
Размер потока: 317 MiB (79%)
Битрейт: 1 029 Kbps
Цветовое пространство: YUV
Тип развёртки: Progressive
Bits/(Pixel*Frame): 0.195
Глубина пикселя: 8 bits
Библиотека кодирования: XviD 64
Тип потока: Звук #1
Длительность: 00:43:02.040
Кодек: MPEG Audio
Кодек/ID: 55
Частота дискретизации: 48.0 KHz
Каналы: 2 channels
Битрейт: 128 Kbps
Тип битрейта: Constant
Размер потока: 39.4 MiB (10%)
Тип потока: Звук #2
Длительность: 00:43:02.040
Кодек: MPEG Audio
Кодек/ID: 55
Частота дискретизации: 48.0 KHz
Каналы: 2 channels
Битрейт: 128 Kbps
Тип битрейта: Constant
Размер потока: 39.4 MiB (10%)

Кадры из фильма



«СЕЗОН 1» «СЕЗОН 2» СЕЗОН 3» «СЕЗОН 4» «СЕЗОН 5»

_________________
[Торрент-статистика]
[Профиль]  [ЛС] 
Показать сообщения:    
Ответить на тему

Текущее время: Сегодня 01:36

Часовой пояс: GMT + 4



Вы не можете начинать темы
Вы не можете отвечать на сообщения
Вы не можете редактировать свои сообщения
Вы не можете удалять свои сообщения
Вы не можете голосовать в опросах
Вы не можете прикреплять файлы к сообщениям
Вы не можете скачивать файлы