Смерти вопреки (Нико-2) / Hard to Kill (Брюс Мэлмат / Bruce Malmuth) [1990, США, Боевик, HDTV 1080i] Dub AVO Original Eng

Ответить на тему
 
Автор
Сообщение

kaliasa ®

Пол:

Стаж: 4 года 8 месяцев

Сообщений: 113

Репутация: 84 [+] [-]

Пост 16-Сен-2013 10:59

[Цитировать] 

-Смерти вопреки (Нико-2) / Hard to Kill
«Nico's back and this time he's even more harder to kill.»
- -Год выпуска: 1990
Страна: США
Жанр: боевик, триллер, драма, криминал
Продолжительность: 01:31:43
Перевод 1: Профессиональный (дублированный)
Перевод 2: Авторский (одноголосый закадровый) - Гаврилов
Cубтитры: нет
Оригинальная аудиодорожка: английский-Режиссер: Брюс Мэлмат /Bruce Malmuth-В ролях: Стивен Сигал /Steven Seagal/, Келли ЛеБрок /Kelly LeBrock/, Уильям Сэдлер /William Sadler/, Фредерик Коффин /Frederick Coffin/, Эндрю Блок /Andrew Bloch/, Брэнском Ричмонд /Branscombe Richmond/, Чарльз Босуэлл /Charles Boswell/-Описание: Коррумпированный калифорнийский политик и его наемники подстрелили Лос-Анджелесского детектива Мейсона Сторма. Они считали его мертвым. Но эта ошибка им дорого обойдется. Сторм живет смерти вопреки.
Семь лет Сторм провел в тайном укрытии, где его выводили из коматозного состояния. Он очнулся с единственной целью: месть. С помощью преданной сиделки он готовится к схватке.
Он совершенствуется в стрельбе, отрабатывает свои навыки боевых искусств и пользуется Восточной медициной, чтобы вернуть себе силы. Его мастерство развернется в полную силу.- ---------Тип релиза: HDTV 1080i
Контейнер: TS
Видео: 1920 x 1080 (1.778) at 25.000 fps AVC at 10,1 Мбит/сек
Аудио 1: AC-3 at 448 Кбит/сек 6 каналов, 48,0 КГц DUB
Аудио 2: AC-3 at 384 Кбит/сек 6 каналов, 48,0 КГц VO
Аудио 3: AC-3 at 384 Кбит/сек 6 каналов, 48,0 КГц en-

Mi

Код:
Общее
Идентификатор : 1 (0x1)
Полное имя : D:\HDTV без перевода+дорожки\Hard to Kill.ts
Формат : MPEG-TS
Размер файла : 7,65 Гбайт
Продолжительность : 1 ч. 31 м.
Общий поток : 11,9 Мбит/сек
Максимальный общий битрейт : 35,5 Мбит/сек
Видео
Идентификатор : 4113 (0x1011)
Идентификатор меню : 1 (0x1)
Формат : AVC
Формат/Информация : Advanced Video Codec
Профиль формата : Main@L4.0
Параметр CABAC формата : Да
Параметр ReFrames формата : 4 кадра
Параметры GOP формата : M=1, N=24
Идентификатор кодека : 27
Продолжительность : 1 ч. 31 м.
Вид битрейта : Переменный
Битрейт : 10,1 Мбит/сек
Максимальный битрейт : 40,0 Мбит/сек
Ширина : 1920 пикс.
Высота : 1080 пикс.
Соотношение сторон : 16:9
Частота кадров : 25,000 кадр/сек
Стандарт вещания : PAL
Цветовое пространство : YUV
Подвыборка цветности : 4:2:0
Битовая глубина : 8 бит
Тип развёртки : Чересстрочная
Порядок развёртки : Верхнее поле первое
Бит/(Пиксели*Кадры) : 0.195
Размер потока : 6,48 Гбайт (85%)
Основные цвета : BT.709-5, BT.1361, IEC 61966-2-4, SMPTE RP177
Характеристики трансфера : BT.709-5, BT.1361
Коэффициенты матрицы : BT.709-5, BT.1361, IEC 61966-2-4 709, SMPTE RP177
Аудио #1
Идентификатор : 4352 (0x1100)
Идентификатор меню : 1 (0x1)
Формат : AC-3
Формат/Информация : Audio Coding 3
Расширение режима : CM (complete main)
Идентификатор кодека : 129
Продолжительность : 1 ч. 31 м.
Вид битрейта : Постоянный
Битрейт : 448 Кбит/сек
Каналы : 6 каналов
Расположение каналов : Front: L C R, Side: L R, LFE
Частота : 48,0 КГц
Битовая глубина : 16 бит
Метод сжатия : С потерями
Задержка видео : 213 мс.
Размер потока : 294 Мбайт (4%)
Язык : Russian
Аудио #2
Идентификатор : 4353 (0x1101)
Идентификатор меню : 1 (0x1)
Формат : AC-3
Формат/Информация : Audio Coding 3
Расширение режима : CM (complete main)
Идентификатор кодека : 129
Продолжительность : 1 ч. 31 м.
Вид битрейта : Постоянный
Битрейт : 384 Кбит/сек
Каналы : 6 каналов
Расположение каналов : Front: L C R, Side: L R, LFE
Частота : 48,0 КГц
Битовая глубина : 16 бит
Метод сжатия : С потерями
Задержка видео : 213 мс.
Размер потока : 252 Мбайт (3%)
Язык : Russian
Аудио #3
Идентификатор : 4354 (0x1102)
Идентификатор меню : 1 (0x1)
Формат : AC-3
Формат/Информация : Audio Coding 3
Расширение режима : CM (complete main)
Идентификатор кодека : 129
Продолжительность : 1 ч. 31 м.
Вид битрейта : Постоянный
Битрейт : 384 Кбит/сек
Каналы : 6 каналов
Расположение каналов : Front: L C R, Side: L R, LFE
Частота : 48,0 КГц
Битовая глубина : 16 бит
Метод сжатия : С потерями
Задержка видео : 213 мс.
Размер потока : 252 Мбайт (3%)
Язык : English

Скриншоты

[Торрент-статистика]
[Профиль]  [ЛС] 

sergei78

Пол:

Стаж: 3 года 2 месяца

Сообщений: 92

Репутация: 120 [+] [-]

Откуда: Бывший СССР: "Связист Кстово 100/40"

Пост 14-Окт-2013 13:13 (спустя 28 дней)

[Цитировать] 

Модераторы перенесите этот релиз в этот раздел http://brodim.com/viewforum.php?f=56
Релизер ошибся разделом.
[Торрент-статистика]
[Профиль]  [ЛС] 
Показать сообщения:    
Ответить на тему

Текущее время: Сегодня 16:16

Часовой пояс: GMT + 4



Вы не можете начинать темы
Вы не можете отвечать на сообщения
Вы не можете редактировать свои сообщения
Вы не можете удалять свои сообщения
Вы не можете голосовать в опросах
Вы не можете прикреплять файлы к сообщениям
Вы не можете скачивать файлы