Эквилибриум / Equilibrium (Курт Уиммер / Kurt Wimmer) [2002 г., фантастика, боевик, триллер, драма, DVD9] [Лицензия от "West Video"]

Ответить на тему
 
Автор
Сообщение

TiZAr ®

Пол:

Стаж: 3 года 3 месяца

Сообщений: 836

Репутация: 1157 [+] [-]

Откуда: Россия

Пост 07-Сен-2013 20:22

[Цитировать] 

Эквилибриум / Equilibrium
«The only thing more powerful than the system, is the man that will overthrow it.»
- Год выпуска: 2002
Страна: США
Жанр: фантастика, боевик, триллер, драма
Продолжительность: 01:42:40
Перевод: Профессиональный (полное дублирование) [Лицензия от "West Video"]
Режиссер: Курт Уиммер / Kurt Wimmer
Производство: Blue Tulip, Dimension Films- -В ролях:
Кристиан Бэйл, Тэй Диггз, Энгус МакФадьен, Шон Бин, Эмили Уотсон, Уильям Фихтнер, Мэттью Харбор, Эмили Сьеверт, Шон Пертуи, Доминик Пёрселл и др.
Описание:
Действие происходит в будущем, когда люди лишены возможности выражать какие-то эмоции, потому, что они… запрещены. Это — та цена, которую человечество платит за устранение из своей жизни войны. Теперь книги, искусство и музыка находятся вне закона. А любое чувство — уже преступление, наказуемое смертью.
Для проведения в жизнь существующего правила используется принудительное применение лекарства «прозиум». Правительственный агент Джон Престон борется с теми, кто нарушает правила. В один прекрасный момент он забывает принять очередную дозу лекарства и с ним происходит духовное превращение, что приводит его к противоречию с самим собой и с начальством.
Доп. материалы на DVD: Раскрытие Эквилибриума: на съемочной площадке и фильмографии Кристиан Бэйл, Тэй Диггз, Шон Бин.
Тип релиза: DVD9
Контейнер: DVD Video
Видео кодек: MPEG2
Аудио кодек: AC3 (Dolby Digital) + DTS
Видео: MPEG 2, 720x576@1024x576 (2.35:1), 25.000 fps, 7 000 Kbps (0.480 bit/pixel)
Аудио #1: AC-3, 48.0 KHz, 6 ch, 384 Kbps, CBR
Аудио #2: AC-3, 48.0 KHz, 6 ch, 384 Kbps, CBR
Аудио #3: DTS, 48.0 KHz, 6 ch, 755 Kbps, CBR
Субтитры: русские

Скриншоты меню

Скриншоты анаморф.



MI

General
Complete name : EQILIBRIUM\VIDEO_TS\VTS_02_1.VOB
Format : MPEG-PS
File size : 1 024 MiB
Duration : 21mn 35s
Overall bit rate mode : Variable
Overall bit rate : 6 629 Kbps
Video
ID : 224 (0xE0)
Format : MPEG Video
Format version : Version 2
Format profile : Main@Main
Format settings, BVOP : Yes
Format settings, Matrix : Default
Format settings, GOP : M=5, N=26
Duration : 21mn 35s
Bit rate mode : Variable
Bit rate : 4 974 Kbps
Maximum bit rate : 7 000 Kbps
Width : 720 pixels
Height : 576 pixels
Display aspect ratio : 2.40:1
Frame rate : 25.000 fps
Standard : PAL
Color space : YUV
Chroma subsampling : 4:2:0
Bit depth : 8 bits
Scan type : Interlaced
Scan order : Top Field First
Compression mode : Lossy
Bits/(Pixel*Frame) : 0.480
Time code of first frame : 00:59:59:04
Time code source : Group of pictures header
Stream size : 768 MiB (75%)
Color primaries : BT.601 PAL
Transfer characteristics : BT.470 System B, BT.470 System G
Matrix coefficients : BT.601
Audio #1
ID : 189 (0xBD)-128 (0x80)
Format : AC-3
Format/Info : Audio Coding 3
Mode extension : CM (complete main)
Format settings, Endianness : Big
Muxing mode : DVD-Video
Duration : 21mn 35s
Bit rate mode : Constant
Bit rate : 384 Kbps
Channel(s) : 6 channels
Channel positions : Front: L C R, Side: L R, LFE
Sampling rate : 48.0 KHz
Bit depth : 16 bits
Compression mode : Lossy
Stream size : 59.3 MiB (6%)
Audio #2
ID : 189 (0xBD)-130 (0x82)
Format : AC-3
Format/Info : Audio Coding 3
Mode extension : CM (complete main)
Format settings, Endianness : Big
Muxing mode : DVD-Video
Duration : 21mn 35s
Bit rate mode : Constant
Bit rate : 384 Kbps
Channel(s) : 6 channels
Channel positions : Front: L C R, Side: L R, LFE
Sampling rate : 48.0 KHz
Bit depth : 16 bits
Compression mode : Lossy
Stream size : 59.3 MiB (6%)
Audio #3
ID : 189 (0xBD)-137 (0x89)
Format : DTS
Format/Info : Digital Theater Systems
Mode : 16
Format settings, Endianness : Big
Muxing mode : DVD-Video
Duration : 21mn 35s
Bit rate mode : Constant
Bit rate : 755 Kbps
Channel(s) : 6 channels
Channel positions : Front: L C R, Side: L R, LFE
Sampling rate : 48.0 KHz
Bit depth : 24 bits
Compression mode : Lossy
Stream size : 117 MiB (11%)
Text
ID : 189 (0xBD)-32 (0x20)
Format : RLE
Format/Info : Run-length encoding
Muxing mode : DVD-Video
Menu

_________________
Не стоит обращать внимания на отсутствие сидов на моих раздачах. Все мои релизы мультитрекерные - нет сидов, включите DHT.
За релизами в HD качестве обращайтесь в личку, либо отписывайтесь в теме.
[Торрент-статистика]
[Профиль]  [ЛС] 
Показать сообщения:    
Ответить на тему

Текущее время: Сегодня 00:18

Часовой пояс: GMT + 4



Вы не можете начинать темы
Вы не можете отвечать на сообщения
Вы не можете редактировать свои сообщения
Вы не можете удалять свои сообщения
Вы не можете голосовать в опросах
Вы не можете прикреплять файлы к сообщениям
Вы не можете скачивать файлы