Дом. История путешествия / Home (Ян Артус Бертранд) (Режисерская версия) [2009 г., Документальный, DVD9]

Ответить на тему
 
Автор
Сообщение

NIKUPER ®

Пол:

Стаж: 5 лет

Сообщений: 66

Репутация: 31 [+] [-]

Пост 04-Дек-2011 18:53

[Цитировать] 

Дом. История путешествия / Home: Story of a journey (Режисерская версия)
Год выпуска: 2009
Страна: Франция
Жанр: Документальный
Продолжительность: 01:48:20
Перевод: Профессиональный (одноголосый)
Режиссер: Ян Артус Бертранд
Продюсер: Люк Бессон, Дэнис Кэрот
Автор сценария: Изабелль Деланнуа, Ян Артус Бертранд, Дэнис Кэрот
Оператор: Мишель Бенжамен, Доминик Жантиль
Композитор: Арман Амар
Монтаж: Йен Ле Ван
Описание: Невероятно зрелищный фильм легендарного Яна Артюс-Бертрана демонстрирует зрителю подлинную красоту и величие планеты Земля. Бескрайняя река Окаванго и могучий вулкан Килиманджаро, девственные пейзажи Исландии и ледяные просторы Антарктиды - вся безграничная палитра красок живого мира с высоты птичьего полёта.
Это наш общий дом, который также удивителен, как и беззащитен перед разрушительной деятельностью человека. Губительные последствия промышленной оккупации, техногенные катастрофы и военные действия наносят неумолимый ущерб планете, показывая зрителю реальную ситуацию.


Формат: DVD-Video
Качество: DVD9
Видео кодек: MPEG-PS
Аудио кодек: AC3 (Dolby Digital)
Текстовые кодеки: RLE
Видео: 6275 kb/s, 720x576 (16:9), 25.000 fps, 0.605 bit/pixel
Аудио #1: Russian: 384 Кбит/сек, 48,0 КГц, 16 бит, 6 каналов, AC-3
Аудио #2: Russian: 192 Кбит/сек, 48,0 КГц, 16 бит, 2 канала, AC-3
Аудио #3: French: 384 Кбит/сек, 48,0 КГц? 16 бит, 6 каналов, AC-3
Внимание:Это документальный фильм-рассказ на основе оригинального видеоматериала, о том как режиссёр снимал фильм "Дом. Свидание с планетой". Т.е. фильм о фильме (нет, в нём нет видео со съёмочной площадки и интервью актёров, это художественно-документальный фильм-о-фильме в котором показаны многие кадры не вошедшие в оригинальный фильм и рассуждения режиссера за кадром)

Детально о кинофильме

Комментарии режиссёра
КенияУже 30 лет я летаю над Землей, и меня воспитало мое путешествие. В Кении чайные плантации дают необычайную палитру зеленых красок. При аэрофотосъемке это настоящие произведения живописи. Вот, что я люблю и постоянно исследую.
Но в моей работе я всегда сталкиваюсь с парадоксами, которые кажутся неразрешимыми. Как эти оранжереи рядом с озером Наиваша, например, выращенными там цветами снабжается Европа, находящаяся в более, чем 6000 километров отсюда. Самолет для транспортировки, пестициды для обработки, загрязнение озера, которое они влекут за собой, не говоря о заборе воды для орошения... Это экологическое нарушение. Но это дает кенийцам работу. Плохо оплачиваемую – но все равно работу.А рядом располагаются трущобы. Как в Найроби – сегодня они там крупнейшие в мире.
Когда я уехал из этой страны, я не представлял, что однажды буду снимать на фото людей и города. Но сегодня, если вас интересует природа, надо серьезно интересоваться людьми и их влиянием на планету.
ТанзанияНа кенийской границе, в Танзании, я собирался снимать вулканы. Это Ленгаи с его густым дымом, который воскрешает в памяти первобытную атмосферу происхождения Земли. И вулкан Килиманджаро, который я не мог узнать из-за столь зрелищного таяния его снегов, считавшихся вечными, которое теперь является символом изменения климата и текущего воздействия человека на Землю.
В Кении были все темы, которые меня волнуют: утрата биологического разнообразия, глобализация сельского хозяйства, рост населения и бедности, изменение климата ... Я заметил признаки этих изменений во всех странах мира. Проведя годы наблюдений, я захотел передать это. Именно для этого я вернулся во все эти страны и создал фильм « Дом». Я хотел бы поделиться своими исследованиями, своими сомнениями и открытиями.
ИсландияЛандшафт этой страны ослепил меня. Я чувствовал, что нашел там красоту в своем первозданном виде. Я нашел там самые красивые виды рек, и мне они были нужны, поскольку нет лучшего примера, чем сравнить их с венами на нашем теле. Чтобы показать, что реки, растения, животные, мы подчиняемся одинаковым механизмам, исходящим из физических законов Земли. Чтобы понять мир, я понял, надо вернуться к его истокам. В Исландии ты уже чувствуешь, как пульсирует жизнь, готовая раскрыться и населить Землю.
В этой стране мы смогли снять эту крайне примитивную и жестокую землю и в то же время современную страну, где используются ресурсы, которые предоставляет земля. Исландия обогревает себя за счет использования тепла земли и оттуда же берет электричество.
АнтарктидаНа другой стороне планеты Антарктида – в высшей степени девственная земля, гигантская масса льда, толщиной в несколько километров и по площади в 25 раз больше Франции. Вместе с северными полярными льдами она поддерживает климатическое равновесие. Это континет крайностей, где человек никогда не мог поселиться.
Антарктида полностью покрыта льдом, если не считать Сухих долин. Именно здесь американцы испытывали свои приборы перед полетом на Луну. Это самое сухое и самое обветренное место в мире. Поэтому оно и носит название Сухие долины. Ветер настолько силен, что снег не удерживается там.
Очень долгое время считалось, что Антарктида защищена от таяния ледников. Это больше не так. Даже здесь изменение климата говорит о себе. Паковый лед, который окружает континент и удерживает ледяную шапку, начинает перемещаться. Сегодня нам известны причины этого дисбаланса.
Китайская Народная РеспубликаВ Китае, к примеру, каждую неделю открываются две новых угольных электростанции. Китай стал самым крупным источником парниковых газов в мире. Китай это база мировой торговли, и его рост впечатляет. Самое крупное население в мире работает в мастерской мира. Тысячи тонн сырья со всего мира приходит в Шанхай. И за несколько лет 3 из 5 крупнейших мировых портов стали китайскими. Каждый день с верфей выходят новые корабли, чтобы доставить товары по всему миру. Знаете ли вы, что самый большой город мира отныне китайский? 34 миллиона жителей, больше половины Франции в одном городе, и при этом немногим знакомо его имя. Это город Чунцин. Когда я снимал фотографии, я не мог поверить своим глазам. В Китае могут закрыть шоссе для сушки кукурузы. Это хорошо иллюстрирует, что там нет ничего важнее еды.
В течение многих лет Китай был закрыт для журналистов. Для меня, фотографа, это была запрещенная зона. Аэрофотосъемка всегда приравнивалась к шпионажу, и я потратил 20 лет, чтобы получит разрешение на полет. Но все, что мы снимали, было под прицелом спецслужб. Для меня было подарком пролететь над Великой китайской стеной. Самое большое сооружение человечества, которое простирается на 8800 километров... 8800 километров, для сравнения, это расстояние по прямой от Парижа до Сан-Франциско.
На протяжении более 2000 лет китайцы строили и восстанавливали целые участки этой стены. Но когда я вижу ее, я не могу удержаться от мысли, что 10 миллионов человек погибло в процессе ее сооружения. Это самое большое человеческое сооружение и без сомнения, это также одно из самых больших в мире кладбищ.
Южная КореяЯ всегда был очарован стенами, которые мы создаем. В этом лесу, например, скрывается практически непроницаемая граница, DMZ или «демилитаризованная зона». Она уже 50 лет разделяет Южную и Северную Корею. Впервые она снимается на видео. Спецслужбы просмотрели всю пленку и конфисковали 70%. 240 километров колючей проволоки, одно из наиболее заминированных мест в мире, охраняемое днем и ночью тысячами человек. С одной стороны запретная страна, погруженная в нищету, а с другой – страна, открытая для мира и богатая. Миллионы северокорейцев желали бы воссоединиться со своими семьями и с южнокорейским промышленным чудом. Однако это богатство имеет свою цену — загрязнение. Столица, Сеул, это один из самых загрязненных городов мира,НепалКто бы мог подумать, что загрязнение проявится здесь, среди этих гор, самых высоких в мире, в этом чистом воздухе Непала? С тех пор, как мы сняли эти кадры, исследования показали, что воздух на вершине Гималайского хребта был так же загрязнен, как и в наших городах. Это загрязнение вызвано воздушными потоками, которые блокируются между горами. Но мы не могли снять самые высокие пики. На вертолете мы ограничены 5500 метрами высоты. Там воздух слишком разрежен для вертолета.
Я приехал сюда, чтобы говорить об изменении климата и его последствиях, столь тревожных на воде. Ученые считают, что большинство из этих ледников рискуют исчезнуть до 2035 года. Это всего лишь через 25 лет. Это казалось неправдоподобным. Эти ледники являются источником большей части крупнейших рек Азии, и почти 2 миллиарда людей зависят от их воды и орошения своих полей.
ИндияНаправляясь в Индию, я хотел показать бедствие, которое придет в ближайшее время, это нехватка воды. Вновь и вновь я вижу человеческий труд. Женщины тратят многие часы, чтобы добраться до колодцев, часто отдаленных от деревень, и набрать воды. Интенсивное развитие сельского хозяйства с 1960-х гг. спасло страну от голода, но оно также полностью уничтожило грунтовые воды. С каждым годом необходимо копать все более и более глубокие скважины для получения воды. За этим мастерством вырисовывается меняющаяся страна, которую мы плохо знаем. В 2012 году население Индии превысит население Китая.ИндонезияЯ общался с одним из рабочих на этом объекте. Я говорил ему о сведении леса, об исчезновении орангутангов, и он мне сказал : « Что ты мне можешь рассказать со своего вертолета, когда я тут сижу в своем тракторе и должен кормить семью ». Он пригласил меня, чтобы поесть дома, у реки. Река вся красная от почвы с холмов, поскольку лес больше не удерживает ее. В единственной комнате был телевизор с плоским экраном. Его жена кормила ребенка и смотрела американский сериал, благодаря спутниковой антенне, одной из первых вещей, которые они приобрели. Я видел, что наш образ жизни был примером для них. Каждый хочет жить, как я, как мы. И что я мог ему ответить? Я снова столкнулся с парадоксами нашей системы, равенство потребления с одной стороны, сохранение ресурсов с другой...ТаиландВ Таиланде, в этом красивом заливе Пхангнга около Пхукета я хотел рассказать об исчезновении мангровых лесов, площадь которого на планете уменьшилась вдвое за столетие. Мангровые леса! Эти удивительные заросли, которые растут в море и покрывают тропические воды.
Благодаря им воды богаты рыбой, они служат убежищем для ракообразных, моллюсков и мальков. Здесь люди веками пользовались их ресурсами: мангровые леса давали им пищу и древесину, лекарства, волокна для канатов... Вся их культура сложилась вокруг мангровых лесов.
Последние 25 лет эти богатые воды привлекли индустрию креветок. Там миллионы креветок. Чтобы сохранить их живыми, воды наполняют антибиотиками, и необходимо постоянно подавать кислород. Чистка еще более увеличивает загрязнение.
Соединенные Штаты АмерикиЯ снял эти бомбардировщики в Тусоне, штат Аризона, что стоят посреди пустыни для повторного использования. Это графично, но это уродливо. В чем красота мертвых птиц? По словам Эла Гора, только деньги на войну в Ираке могли бы позволить оборудовать все американские крыши солнечными батареями.
Когда летишь над Соединенными Штатами, знаешь, что виды будут впечатляющими. США занимает почти все призовые места, как хорошие, так и плохие. Первая страна по военной мощи, самая большая демократия в мире и символ свободы. Это главный потребитель нашей планеты, но в то же время, это страна, которая создала первые заповедники, как Йеллоустонский парк. Большой Призматический источник это мифическое место для фотографов с воздуха, так как эти невероятные цвета видны только с неба.
Буркина-ФасоЗдесь нет орошения, климат подходит для выращивания хлопка. Сбор производится вручную. Вся семья принимает в этом участие. Хлопок является главным богатством страны.
На мировом рынке один шар хлопка, посеянного и собранного вручную, сравним с хлопчатобумажной сумкой из субсидированного американского хлопка. Они продаются по одной цене. Разница в том, что в африканской сумке в 2000 раз больше рабочего времени, чем в первой. А когда цены падают, стоимость хлопка становится слишком низкой, чтобы прокормить семью.
АргентинаВода. Чтобы говорить о ней, нам необходимы впечатляющие образы. Что может быть прекраснее, чем водопады Игуасу на границе Бразилии и Аргентины? Мы снимали их часами, будто зачарованные.
Водопады Игуасу собирают воду на северо-востоке Бразилии. Комплекс включает в себя 275 отдельных каскадов. Миллионы людей приезжают со всего мира, чтобы полюбоваться ими.
Но небольшое добавление, роскошные отели этого места не оборудованы канализацией, и сточные воды сбрасываются непосредственно в реку в самом сердце заповедника, являющегося при этом всемирным достоянием человечества. Еще один парадокс?
РоссияХотя эти сибирские пейзажи напоминают Пантанал, существует большая разница между ними. Так как под этой водой находится лед. Почвы постоянно заморожены до глубины. Это всем известная вечная мерзлота. Когда эти почвы оттаивают, они выпускают газ в 23 раза более мощный, чем С02, - метан. Именно его боятся ученые в случае глобального потепления.
Этот регион является одним из основных по запасам нефти и газа в России. Мы над месторождениями Сургута, отсюда выходит большая часть газа, который потребляется в Европе.
Сибирь это один из регионов мира, где самая большая температурная амплитуда. Летом здесь +40 ° С, а зимой -40 ° C. Такая температура была, когда мы снимали озеро Байкал. Потрясающее зрелище!
АрктикаЕще одна ледяная история, но мы еще дальше на севере, в Арктике, в канадских водах, где из года в года мы наблюдаем таяние льда. На этих кадрах красота служит посланием. Паковый лед растаял, оставив место для темной воды, который поглощает лучи солнца, в то время как белый лед отражает их к небу. Море нагревается еще больше, и лед тает еще быстрее.
В результате открываются новые пути, которые считались недоступными. Льды закрывали Северо-Западный проход, который связывает Тихий и Атлантический океаны между Европой и Северной Америкой. Сегодня он освобождается. Этот корабль проходит его впервые. И там я увидел скорость изменений. Таяние льдов полностью меняет мировые торговые пути.
НигерияСнова нефть. В Нигерии она находится в недрах. И я был рад, что снял эти неожиданные кадры нефтяных факелов посреди леса. Одновременно и нефть, и ее источник — растения. Эти фотографии говорят сами за себя.
Платформ, при помощи которых добывают нефть в море, также много в Нигерии. Это первая нефтедобывающая страна в Африке, где нефть можно найти всюду, и при этом она остается одной из самых бедных! Я хотел показать это нефтяное проклятие. Как страна, настолько богатая ресурсами, может быть погруженной в нищету?
УкраинаЭто очевидная ошибка. Нулевого риска не существует. Я снял Чернобыль, это город-призрак рядом с электростанцией, один из реакторов которой взорвался. Эти кадры застывшей красоты говорят о большой опасности, которую несет атомная энергия. Принять атомную энергию – значить принять эту опасность.

DVDInfo

Title: HOME
Size: 6.68 Gb ( 7 006 930,00 KBytes ) - DVD-9
Enabled regions: 1, 2, 3, 4, 5, 6, 7, 8
VTS_01 :
Play Length: 00:00:00+01:48:20+{00:00:00}
Video: PAL 16:9 (720x576) VBR, Auto Letterboxed
Audio:
Russian (Dolby AC3, 6 ch)
Russian (Dolby AC3, 2 ch)
Francais (Dolby AC3, 6 ch)
Subtitles:
Russian
VTS_02 :
Play Length: 00:00:00+00:00:05+00:00:13
Video: PAL 16:9 (720x576) VBR, Auto Letterboxed
Audio:
Russian (Dolby AC3, 6 ch)
VTS_03 :
Play Length: 00:00:00+00:03:57+{00:00:00}
Video: PAL 16:9 (720x576) VBR, Auto Letterboxed
Audio:
Russian (Dolby AC3, 2 ch)
VTS_04 :
Play Length: 00:00:00+00:01:46+{00:00:00}+{00:00:00}+00:01:36+{00:00:00}
Video: PAL 16:9 (720x576) VBR, Auto Letterboxed
Audio:
Russian (Dolby AC3, 2 ch)
VTS_05 :
Play Length: 00:00:00+00:01:29+{00:00:00}+{00:00:00}+00:01:50+{00:00:00}+{00:00:00}
Video: PAL 4:3 (720x576) VBR
Audio:
Russian (Dolby AC3, 2 ch)
VTS_06 :
Play Length: 00:00:00+00:01:18+{00:00:00}
Video: PAL 4:3 (720x576) VBR
Audio:
Russian (Dolby AC3, 6 ch)
* Menus Information *
VIDEO_TS Menu
Video:
PAL 4:3 (720x576) VBR
Auto Pan&Scan, Auto Letterboxed
Russian Language Unit :
Title Menu
VTS_01 Menu
Video:
PAL 16:9 (720x576) VBR
Auto Letterboxed
Audio:
Not specified (Dolby AC3, 2 ch)
Russian Language Unit :
Root Menu
VTS_02 Menu
Video:
PAL 4:3 (720x576) VBR
Auto Pan&Scan, Auto Letterboxed
Language Unit :
Angle menu
Language Unit :
Language Unit :
Root Menu
VTS_03 Menu
Video:
PAL 4:3 (720x576) VBR
Auto Pan&Scan, Auto Letterboxed
Language Unit :
Angle menu
Language Unit :
Language Unit :
VTS_04 Menu
Video:
PAL 4:3 (720x576) VBR
Auto Pan&Scan, Auto Letterboxed
Russian Language Unit :
Root Menu
VTS_05 Menu
Video:
PAL 4:3 (720x576) VBR
Auto Pan&Scan, Auto Letterboxed
Russian Language Unit :
Root Menu
VTS_06 Menu
Video:
PAL 4:3 (720x576) VBR
Auto Pan&Scan, Auto Letterboxed
Russian Language Unit :
Root Menu

MediaInfo

Общее
Полное имя : E:\ТОРРЕНТЫ\HOME\VTS_01_1.VOB
Формат : MPEG-PS
Размер файла : 1024 Мбайт
Продолжительность : 19 м.
Режим общего битрейта : Переменный
Общий поток : 7382 Кбит/сек
Библиотека кодирования : encoded by TMPGEnc (ver. 2.524.63.181)
Видео
Идентификатор : 224 (0xE0)
Формат : MPEG Video
Версия формата : Version 2
Профиль формата : Main@Main
Параметр BVOP формата : Да
Параметр матрицы формата : Выборочная
Продолжительность : 19 м.
Вид битрейта : Переменный
Битрейт : 6275 Кбит/сек
Ширина : 720 пикселей
Высота : 576 пикселей
Соотношение сторон : 16:9
Частота кадров : 25,000 кадров/сек
Стандарт вещания : PAL
Цветовое пространство : YUV
Субдискретизация насыщенности : 4:2:0
Битовая глубина : 8 бит
Метод сжатия : С потерями
Бит/(Пиксели*Кадры) : 0.605
Размер потока : 870 Мбайт (85%)
Библиотека кодирования : TMPGEnc 2.524.63.181
Основные цвета : BT.470-2 System B, BT.470-2 System G
Характеристики трансфера : BT.470-2 System B, BT.470-2 System G
Коэффициенты матрицы : BT.470-2 System B, BT.470-2 System G
Аудио #1
Идентификатор : 189 (0xBD)-128 (0x80)
Формат : AC-3
Формат/Информация : Audio Coding 3
Расширение режима : CM (complete main)
Режим смешивания : DVD-Video
Продолжительность : 19 м.
Вид битрейта : Постоянный
Битрейт : 384 Кбит/сек
Каналы : 6 каналов
Расположение каналов : Front: L C R, Side: L R, LFE
Частота : 48,0 КГц
Битовая глубина : 16 бит
Метод сжатия : С потерями
Задержка видео : 6 мс.
Размер потока : 53,3 Мбайт (5%)
Аудио #2
Идентификатор : 189 (0xBD)-129 (0x81)
Формат : AC-3
Формат/Информация : Audio Coding 3
Расширение режима : CM (complete main)
Режим смешивания : DVD-Video
Продолжительность : 19 м.
Вид битрейта : Постоянный
Битрейт : 192 Кбит/сек
Каналы : 2 канала
Расположение каналов : Front: L R
Частота : 48,0 КГц
Битовая глубина : 16 бит
Метод сжатия : С потерями
Задержка видео : 6 мс.
Размер потока : 26,6 Мбайт (3%)
Аудио #3
Идентификатор : 189 (0xBD)-130 (0x82)
Формат : AC-3
Формат/Информация : Audio Coding 3
Расширение режима : CM (complete main)
Режим смешивания : DVD-Video
Продолжительность : 19 м.
Вид битрейта : Постоянный
Битрейт : 384 Кбит/сек
Каналы : 6 каналов
Расположение каналов : Front: L C R, Side: L R, LFE
Частота : 48,0 КГц
Битовая глубина : 16 бит
Метод сжатия : С потерями
Задержка видео : 6 мс.
Размер потока : 53,3 Мбайт (5%)
Текст
Идентификатор : 189 (0xBD)-32 (0x20)
Формат : RLE
Формат/Информация : Run-length encoding
Режим смешивания : DVD-Video
Задержка видео : 1 с. 326 мс.
Меню
Общее
Полное имя : E:\ТОРРЕНТЫ\HOME\VTS_01_2.VOB
Формат : MPEG-PS
Размер файла : 1024 Мбайт
Продолжительность : 18 м.
Режим общего битрейта : Переменный
Общий поток : 7852 Кбит/сек
Видео
Идентификатор : 224 (0xE0)
Формат : MPEG Video
Версия формата : Version 2
Профиль формата : Main@Main
Параметр BVOP формата : Да
Параметр матрицы формата : Выборочная
Параметр GOP формата : M=3, N=15
Продолжительность : 18 м.
Вид битрейта : Переменный
Битрейт : 6735 Кбит/сек
Максимальный битрейт : 8500 Кбит/сек
Ширина : 720 пикселей
Высота : 576 пикселей
Соотношение сторон : 16:9
Частота кадров : 25,000 кадров/сек
Стандарт вещания : PAL
Цветовое пространство : YUV
Субдискретизация насыщенности : 4:2:0
Битовая глубина : 8 бит
Тип развёртки : Чересстрочная
Порядок развёртки : Верхнее поле первое
Метод сжатия : С потерями
Бит/(Пиксели*Кадры) : 0.650
Размер потока : 878 Мбайт (86%)
Аудио #1
Идентификатор : 189 (0xBD)-128 (0x80)
Формат : AC-3
Формат/Информация : Audio Coding 3
Расширение режима : CM (complete main)
Режим смешивания : DVD-Video
Продолжительность : 18 м.
Вид битрейта : Постоянный
Битрейт : 384 Кбит/сек
Каналы : 6 каналов
Расположение каналов : Front: L C R, Side: L R, LFE
Частота : 48,0 КГц
Битовая глубина : 16 бит
Метод сжатия : С потерями
Задержка видео : -488 мс.
Размер потока : 50,1 Мбайт (5%)
Аудио #2
Идентификатор : 189 (0xBD)-129 (0x81)
Формат : AC-3
Формат/Информация : Audio Coding 3
Расширение режима : CM (complete main)
Режим смешивания : DVD-Video
Продолжительность : 18 м.
Вид битрейта : Постоянный
Битрейт : 192 Кбит/сек
Каналы : 2 канала
Расположение каналов : Front: L R
Частота : 48,0 КГц
Битовая глубина : 16 бит
Метод сжатия : С потерями
Задержка видео : -360 мс.
Размер потока : 25,0 Мбайт (2%)
Аудио #3
Идентификатор : 189 (0xBD)-130 (0x82)
Формат : AC-3
Формат/Информация : Audio Coding 3
Расширение режима : CM (complete main)
Режим смешивания : DVD-Video
Продолжительность : 18 м.
Вид битрейта : Постоянный
Битрейт : 384 Кбит/сек
Каналы : 6 каналов
Расположение каналов : Front: L C R, Side: L R, LFE
Частота : 48,0 КГц
Битовая глубина : 16 бит
Метод сжатия : С потерями
Задержка видео : -488 мс.
Размер потока : 50,1 Мбайт (5%)
Текст
Идентификатор : 189 (0xBD)-32 (0x20)
Формат : RLE
Формат/Информация : Run-length encoding
Режим смешивания : DVD-Video
Меню
Общее
Полное имя : E:\ТОРРЕНТЫ\HOME\VTS_01_3.VOB
Формат : MPEG-PS
Размер файла : 1024 Мбайт
Продолжительность : 3 с. 960 мс.
Режим общего битрейта : Переменный
Общий поток : 2169 Мбит/сек
Видео
Идентификатор : 224 (0xE0)
Формат : MPEG Video
Версия формата : Version 2
Профиль формата : Main@Main
Параметр BVOP формата : Да
Параметр матрицы формата : Выборочная
Параметр GOP формата : M=3, N=15
Продолжительность : 3 с. 960 мс.
Вид битрейта : Переменный
Битрейт : 2125 Мбит/сек
Максимальный битрейт : 8500 Кбит/сек
Ширина : 720 пикселей
Высота : 576 пикселей
Соотношение сторон : 16:9
Частота кадров : 25,000 кадров/сек
Стандарт вещания : PAL
Цветовое пространство : YUV
Субдискретизация насыщенности : 4:2:0
Битовая глубина : 8 бит
Тип развёртки : Чересстрочная
Порядок развёртки : Верхнее поле первое
Метод сжатия : С потерями
Бит/(Пиксели*Кадры) : 204.962
Размер потока : 1003 Мбайт (98%)
Аудио #1
Идентификатор : 189 (0xBD)-128 (0x80)
Формат : AC-3
Формат/Информация : Audio Coding 3
Расширение режима : CM (complete main)
Режим смешивания : DVD-Video
Продолжительность : 3 с. 960 мс.
Вид битрейта : Постоянный
Битрейт : 384 Кбит/сек
Каналы : 6 каналов
Расположение каналов : Front: L C R, Side: L R, LFE
Частота : 48,0 КГц
Битовая глубина : 16 бит
Метод сжатия : С потерями
Задержка видео : -848 мс.
Размер потока : 186 Кбайт (0%)
Аудио #2
Идентификатор : 189 (0xBD)-129 (0x81)
Формат : AC-3
Формат/Информация : Audio Coding 3
Расширение режима : CM (complete main)
Режим смешивания : DVD-Video
Продолжительность : 3 с. 960 мс.
Вид битрейта : Постоянный
Битрейт : 192 Кбит/сек
Каналы : 2 канала
Расположение каналов : Front: L R
Частота : 48,0 КГц
Битовая глубина : 16 бит
Метод сжатия : С потерями
Задержка видео : -752 мс.
Размер потока : 92,8 Кбайт (0%)
Аудио #3
Идентификатор : 189 (0xBD)-130 (0x82)
Формат : AC-3
Формат/Информация : Audio Coding 3
Расширение режима : CM (complete main)
Режим смешивания : DVD-Video
Продолжительность : 3 с. 960 мс.
Вид битрейта : Постоянный
Битрейт : 384 Кбит/сек
Каналы : 6 каналов
Расположение каналов : Front: L C R, Side: L R, LFE
Частота : 48,0 КГц
Битовая глубина : 16 бит
Метод сжатия : С потерями
Задержка видео : -848 мс.
Размер потока : 186 Кбайт (0%)
Текст
Идентификатор : 189 (0xBD)-32 (0x20)
Формат : RLE
Формат/Информация : Run-length encoding
Режим смешивания : DVD-Video
Задержка видео : 360 мс.
Меню
Общее
Полное имя : E:\ТОРРЕНТЫ\HOME\VTS_01_4.VOB
Формат : MPEG-PS
Размер файла : 1024 Мбайт
Продолжительность : 18 м.
Режим общего битрейта : Переменный
Общий поток : 7652 Кбит/сек
Видео
Идентификатор : 224 (0xE0)
Формат : MPEG Video
Версия формата : Version 2
Профиль формата : Main@Main
Параметр BVOP формата : Да
Параметр матрицы формата : Выборочная
Параметр GOP формата : M=3, N=15
Продолжительность : 18 м.
Вид битрейта : Переменный
Битрейт : 6539 Кбит/сек
Максимальный битрейт : 8500 Кбит/сек
Ширина : 720 пикселей
Высота : 576 пикселей
Соотношение сторон : 16:9
Частота кадров : 25,000 кадров/сек
Стандарт вещания : PAL
Цветовое пространство : YUV
Субдискретизация насыщенности : 4:2:0
Битовая глубина : 8 бит
Тип развёртки : Чересстрочная
Порядок развёртки : Верхнее поле первое
Метод сжатия : С потерями
Бит/(Пиксели*Кадры) : 0.631
Размер потока : 875 Мбайт (85%)
Аудио #1
Идентификатор : 189 (0xBD)-128 (0x80)
Формат : AC-3
Формат/Информация : Audio Coding 3
Расширение режима : CM (complete main)
Режим смешивания : DVD-Video
Продолжительность : 18 м.
Вид битрейта : Постоянный
Битрейт : 384 Кбит/сек
Каналы : 6 каналов
Расположение каналов : Front: L C R, Side: L R, LFE
Частота : 48,0 КГц
Битовая глубина : 16 бит
Метод сжатия : С потерями
Задержка видео : -544 мс.
Размер потока : 51,4 Мбайт (5%)
Аудио #2
Идентификатор : 189 (0xBD)-129 (0x81)
Формат : AC-3
Формат/Информация : Audio Coding 3
Расширение режима : CM (complete main)
Режим смешивания : DVD-Video
Продолжительность : 18 м.
Вид битрейта : Постоянный
Битрейт : 192 Кбит/сек
Каналы : 2 канала
Расположение каналов : Front: L R
Частота : 48,0 КГц
Битовая глубина : 16 бит
Метод сжатия : С потерями
Задержка видео : -512 мс.
Размер потока : 25,7 Мбайт (3%)
Аудио #3
Идентификатор : 189 (0xBD)-130 (0x82)
Формат : AC-3
Формат/Информация : Audio Coding 3
Расширение режима : CM (complete main)
Режим смешивания : DVD-Video
Продолжительность : 18 м.
Вид битрейта : Постоянный
Битрейт : 384 Кбит/сек
Каналы : 6 каналов
Расположение каналов : Front: L C R, Side: L R, LFE
Частота : 48,0 КГц
Битовая глубина : 16 бит
Метод сжатия : С потерями
Задержка видео : -544 мс.
Размер потока : 51,4 Мбайт (5%)
Текст
Идентификатор : 189 (0xBD)-32 (0x20)
Формат : RLE
Формат/Информация : Run-length encoding
Режим смешивания : DVD-Video
Продолжительность : 18 м.
Задержка видео : 1 с. 120 мс.
Меню
Общее
Полное имя : E:\ТОРРЕНТЫ\HOME\VTS_01_5.VOB
Формат : MPEG-PS
Размер файла : 1024 Мбайт
Продолжительность : 19 м.
Режим общего битрейта : Переменный
Общий поток : 7292 Кбит/сек
Видео
Идентификатор : 224 (0xE0)
Формат : MPEG Video
Версия формата : Version 2
Профиль формата : Main@Main
Параметр BVOP формата : Да
Параметр матрицы формата : Выборочная
Параметр GOP формата : M=3, N=15
Продолжительность : 19 м.
Вид битрейта : Переменный
Битрейт : 6187 Кбит/сек
Максимальный битрейт : 8500 Кбит/сек
Ширина : 720 пикселей
Высота : 576 пикселей
Соотношение сторон : 16:9
Частота кадров : 25,000 кадров/сек
Стандарт вещания : PAL
Цветовое пространство : YUV
Субдискретизация насыщенности : 4:2:0
Битовая глубина : 8 бит
Тип развёртки : Чересстрочная
Порядок развёртки : Верхнее поле первое
Метод сжатия : С потерями
Бит/(Пиксели*Кадры) : 0.597
Размер потока : 869 Мбайт (85%)
Аудио #1
Идентификатор : 189 (0xBD)-128 (0x80)
Формат : AC-3
Формат/Информация : Audio Coding 3
Расширение режима : CM (complete main)
Режим смешивания : DVD-Video
Продолжительность : 19 м.
Вид битрейта : Постоянный
Битрейт : 384 Кбит/сек
Каналы : 6 каналов
Расположение каналов : Front: L C R, Side: L R, LFE
Частота : 48,0 КГц
Битовая глубина : 16 бит
Метод сжатия : С потерями
Задержка видео : -440 мс.
Размер потока : 53,9 Мбайт (5%)
Аудио #2
Идентификатор : 189 (0xBD)-129 (0x81)
Формат : AC-3
Формат/Информация : Audio Coding 3
Расширение режима : CM (complete main)
Режим смешивания : DVD-Video
Продолжительность : 19 м.
Вид битрейта : Постоянный
Битрейт : 192 Кбит/сек
Каналы : 2 канала
Расположение каналов : Front: L R
Частота : 48,0 КГц
Битовая глубина : 16 бит
Метод сжатия : С потерями
Задержка видео : -376 мс.
Размер потока : 27,0 Мбайт (3%)
Аудио #3
Идентификатор : 189 (0xBD)-130 (0x82)
Формат : AC-3
Формат/Информация : Audio Coding 3
Расширение режима : CM (complete main)
Режим смешивания : DVD-Video
Продолжительность : 19 м.
Вид битрейта : Постоянный
Битрейт : 384 Кбит/сек
Каналы : 6 каналов
Расположение каналов : Front: L C R, Side: L R, LFE
Частота : 48,0 КГц
Битовая глубина : 16 бит
Метод сжатия : С потерями
Задержка видео : -440 мс.
Размер потока : 53,9 Мбайт (5%)
Текст
Идентификатор : 189 (0xBD)-32 (0x20)
Формат : RLE
Формат/Информация : Run-length encoding
Режим смешивания : DVD-Video
Задержка видео : 2 с. 280 мс.
Меню
Общее
Полное имя : E:\ТОРРЕНТЫ\HOME\VTS_01_6.VOB
Формат : MPEG-PS
Размер файла : 768 Мбайт
Продолжительность : 13 м.
Режим общего битрейта : Переменный
Общий поток : 7765 Кбит/сек
Видео
Идентификатор : 224 (0xE0)
Формат : MPEG Video
Версия формата : Version 2
Профиль формата : Main@Main
Параметр BVOP формата : Да
Параметр матрицы формата : Выборочная
Параметр GOP формата : M=3, N=15
Продолжительность : 13 м.
Вид битрейта : Переменный
Битрейт : 6650 Кбит/сек
Максимальный битрейт : 8500 Кбит/сек
Ширина : 720 пикселей
Высота : 576 пикселей
Соотношение сторон : 16:9
Частота кадров : 25,000 кадров/сек
Стандарт вещания : PAL
Цветовое пространство : YUV
Субдискретизация насыщенности : 4:2:0
Битовая глубина : 8 бит
Тип развёртки : Чересстрочная
Порядок развёртки : Верхнее поле первое
Метод сжатия : С потерями
Бит/(Пиксели*Кадры) : 0.641
Размер потока : 658 Мбайт (86%)
Аудио #1
Идентификатор : 189 (0xBD)-128 (0x80)
Формат : AC-3
Формат/Информация : Audio Coding 3
Расширение режима : CM (complete main)
Режим смешивания : DVD-Video
Продолжительность : 13 м.
Вид битрейта : Постоянный
Битрейт : 384 Кбит/сек
Каналы : 6 каналов
Расположение каналов : Front: L C R, Side: L R, LFE
Частота : 48,0 КГц
Битовая глубина : 16 бит
Метод сжатия : С потерями
Задержка видео : -512 мс.
Размер потока : 38,0 Мбайт (5%)
Аудио #2
Идентификатор : 189 (0xBD)-129 (0x81)
Формат : AC-3
Формат/Информация : Audio Coding 3
Расширение режима : CM (complete main)
Режим смешивания : DVD-Video
Продолжительность : 13 м.
Вид битрейта : Постоянный
Битрейт : 192 Кбит/сек
Каналы : 2 канала
Расположение каналов : Front: L R
Частота : 48,0 КГц
Битовая глубина : 16 бит
Метод сжатия : С потерями
Задержка видео : -448 мс.
Размер потока : 19,0 Мбайт (2%)
Аудио #3
Идентификатор : 189 (0xBD)-130 (0x82)
Формат : AC-3
Формат/Информация : Audio Coding 3
Расширение режима : CM (complete main)
Режим смешивания : DVD-Video
Продолжительность : 13 м.
Вид битрейта : Постоянный
Битрейт : 384 Кбит/сек
Каналы : 6 каналов
Расположение каналов : Front: L C R, Side: L R, LFE
Частота : 48,0 КГц
Битовая глубина : 16 бит
Метод сжатия : С потерями
Задержка видео : -512 мс.
Размер потока : 38,0 Мбайт (5%)
Текст
Идентификатор : 189 (0xBD)-32 (0x20)
Формат : RLE
Формат/Информация : Run-length encoding
Режим смешивания : DVD-Video
Задержка видео : 1 с. 280 мс.

Скриншоты


- -

_________________


Последний раз редактировалось: NIKUPER (2011-12-04 19:57), всего редактировалось 2 раз(а)
[Торрент-статистика]
[Профиль]  [ЛС] 
Показать сообщения:    
Ответить на тему

Текущее время: Сегодня 00:23

Часовой пояс: GMT + 4



Вы не можете начинать темы
Вы не можете отвечать на сообщения
Вы не можете редактировать свои сообщения
Вы не можете удалять свои сообщения
Вы не можете голосовать в опросах
Вы не можете прикреплять файлы к сообщениям
Вы не можете скачивать файлы