Трансформеры 3: Тёмная сторона Луны / Transformers: Dark of the Moon, фантастика, боевик, приключения, 2011, DVD9

Ответить на тему
 
Автор
Сообщение

NeliyZar ®

Пол:

Стаж: 5 лет 1 месяц

Сообщений: 3378

Репутация: 687 [+] [-]

Откуда: Донбасс

Пост 28-Ноя-2011 20:26

[Цитировать] 

Трансформеры 3: Тёмная сторона Луны / Transformers: Dark of the Moon
«Последний шанс цивилизации»
Русское название: Трансформеры 3: Тёмная сторона Луны
Оригинальное название: Transformers: Dark of the Moon
Год выпуска: 2011
Производство: США
Студия: Paramount Pictures, Hasbro, Di Bonaventura Pictures
Бюджет: $195 000 000
Жанр: Фантастика, Триллер, Мелодрама
Перевод: Дублированный
Субтитры: Вшитые отключаемые
Язык субтитров: Русский, Английский
Дата мировой премьеры: 25 июня 2011
Дата российской премьеры: 29 июня 2011, «Централ Партнершип»
Режиссер: Майкл Бэй
Продюсер: Дон Мерфи, Йен Брюс, Том ДеСанто
Актеры: Шайа ЛаБаф, Джош Дюамель, Джон Туртурро, Тайриз Гибсон, Роузи Хантингтон-Уайтли, Патрик Демпси, Кевин Данн, Джули Уайт, Хьюго Уивинг, Джон Малкович, Кен Жонг
Описание фильма:
Для наших героев наступили печальные будни: Сэм потерял Микаэлу, правительство выпускает законодательный акт о выселении Автоботов с Земли, а пока Мегатрон скрывается после позорного поражения Фоллена, десептикон Шокуэйв, правитель Кибертрона, готовится нанести визит нашей планете с совсем недобрыми намерениями. Действие заключительной части трилогии на этот раз охватит не только Землю, но и Луну, темная сторона которой хранит не менее темные тайны.
Продолжительность: 02:34:23
Качество видео: DVD9
Видеокодек: MPEG-2
Битрейт видео: ~5814 kb/s
Размер кадра: PAL 16:9 (720x576)
Аудиокодек и битрейт аудио:
Аудио #1: Английский ( AC3, 6 ch, 448 kb/s)
Аудио #2: Русский ( AC3, 6 ch, 384 kb/s )

MediaInfo

Общее
Полное имя : Трансформеры 3 DVD9\VIDEO_TS\VTS_02_1.VOB
Формат : MPEG-PS
Размер файла : 1000 Мбайт
Продолжительность : 20 м.
Режим общего битрейта : Переменный
Общий поток : 6781 Кбит/сек
Видео
Идентификатор : 224 (0xE0)
Формат : MPEG Video
Версия формата : Version 2
Профиль формата : Main@Main
Параметр BVOP формата : Нет
Параметр матрицы формата : По умолчанию
Параметр GOP формата : M=1, N=12
Продолжительность : 20 м.
Вид битрейта : Переменный
Битрейт : 5814 Кбит/сек
Максимальный битрейт : 9000 Кбит/сек
Ширина : 720 пикселей
Высота : 576 пикселей
Соотношение сторон : 16:9
Частота кадров : 25,000 кадров/сек
Стандарт вещания : PAL
Цветовое пространство : YUV
Субдискретизация насыщенности : 4:2:0
Битовая глубина : 8 бит
Тип развёртки : Прогрессивная
Метод сжатия : С потерями
Бит/(Пиксели*Кадры) : 0.561
Размер потока : 857 Мбайт (86%)
Аудио #1
Идентификатор : 189 (0xBD)-128 (0x80)
Формат : AC-3
Формат/Информация : Audio Coding 3
Расширение режима : CM (complete main)
Режим смешивания : DVD-Video
Продолжительность : 20 м.
Вид битрейта : Постоянный
Битрейт : 448 Кбит/сек
Каналы : 6 каналов
Расположение каналов : Front: L C R, Side: L R, LFE
Частота : 48,0 КГц
Битовая глубина : 16 бит
Метод сжатия : С потерями
Размер потока : 66,1 Мбайт (7%)
Аудио #2
Идентификатор : 189 (0xBD)-129 (0x81)
Формат : AC-3
Формат/Информация : Audio Coding 3
Расширение режима : CM (complete main)
Режим смешивания : DVD-Video
Продолжительность : 20 м.
Вид битрейта : Постоянный
Битрейт : 384 Кбит/сек
Каналы : 6 каналов
Расположение каналов : Front: L C R, Side: L R, LFE
Частота : 48,0 КГц
Битовая глубина : 16 бит
Метод сжатия : С потерями
Размер потока : 56,6 Мбайт (6%)
Текст #1
Идентификатор : 189 (0xBD)-32 (0x20)
Формат : RLE
Формат/Информация : Run-length encoding
Режим смешивания : DVD-Video
Текст #2
Идентификатор : 189 (0xBD)-33 (0x21)
Формат : RLE
Формат/Информация : Run-length encoding
Режим смешивания : DVD-Video
Текст #3
Идентификатор : 189 (0xBD)-34 (0x22)
Формат : RLE
Формат/Информация : Run-length encoding
Режим смешивания : DVD-Video
Текст #4
Идентификатор : 189 (0xBD)-35 (0x23)
Формат : RLE
Формат/Информация : Run-length encoding
Режим смешивания : DVD-Video
Меню

DVDInfo

Title: Трансформеры 3 DVD9
Size: 7.43 Gb ( 7 789 466,00 KBytes ) - DVD-9
Enabled regions: 1, 2, 3, 4, 5, 6, 7, 8
VTS_01 :
Play Length: 00:00:14
Video: PAL 16:9 (720x576) VBR, Auto Letterboxed
Audio:
Not specified (Dolby AC3, 2 ch)
VTS_02 :
Play Length: 02:34:23
Video: PAL 16:9 (720x576) VBR, Auto Letterboxed
Audio:
English (Dolby AC3, 6 ch)
Russian (Dolby AC3, 6 ch)
Subtitles:
English
Russian

Скриншоты:

Скриншоты меню

Создание релиза:

Исходник Blu-Ray 50,
Меню анимированное, полностью озвученное, без динамических переходов.
Обработка производилась:
PhotoShop - работа над меню,
tsMuxer - демуксинг m2ts,
Видео обрабатывалось с помощью AVISynth скрипта и кодировалась при помощи Cinema Craft Encoder SP2 в 5 проходов,
SupRip, Subtitle Wokshop - работа над субтитрами,
aec3to - кодирование английский дорожки DTS в AC3,
Sony Vegas - синхронизация аудио,
DVD Architect - создание DVD.
Работоспособность проверена на софтовом плеере Windows Media, PowerDVD и бытовом BBK.
Записано программой ImgBurn на DVD9-R болванку.

_________________
Спорить с женщиной не так тяжело, когда понимаешь, что это бесполезно... (Михаил Мамчич)
Исправили раздачу? Отпишитесь модератору в ЛС с ссылкой на релиз.
[Торрент-статистика]
[Профиль]  [ЛС] 
Показать сообщения:    
Ответить на тему

Текущее время: Сегодня 15:34

Часовой пояс: GMT + 4



Вы не можете начинать темы
Вы не можете отвечать на сообщения
Вы не можете редактировать свои сообщения
Вы не можете удалять свои сообщения
Вы не можете голосовать в опросах
Вы не можете прикреплять файлы к сообщениям
Вы не можете скачивать файлы