Комнаты смерти: загадки настоящего Шерлока Холмса / Murder Rooms: The Mysteries of the real Sherlock Holmes, серии 1-5 из 5 (Пол Маркус) [2000 - 2001г., Детектив, 5xDVD5]MVO [ГТРК "Культура"] + Original + rus sub

Ответить на тему
 
Автор
Сообщение

NIKUPER ®

Пол:

Стаж: 5 лет

Сообщений: 66

Репутация: 31 [+] [-]

Пост 28-Сен-2012 00:43

[Цитировать] 

Murder Rooms: The Mysteries of the real Sherlock Holmes-Комнаты смерти: загадки настоящего Шерлока Холмса, серии 1-5 из 5-Год выпуска: 2000 - 2001
Производство: Великобритания / BBC, WGBH
Жанр: Детектив, криминал
Общая продолжительность: 450 минут (~01:30:00 х 5 серий)
Перевод: Профессиональный (многоголосый закадровый) [ГТРК "Культура"]
Русские субтитры: есть
Субтитры: русские
Режиссёр: Пол Маркус / Paul Marcus
Продюсер: Нил Ахерн мл., Кэрол Барби, Дэннис Хаммер
Автор сценария: Тим Кринг
Оператор: Кертис Вер, Джо Виллемс, Том Яцко
В ролях:
Иэн Ричардсон / Ian Richardson ... доктор Джозеф Белл / Dr. Joseph Bell
Робин Лайнг / Robin Laing ... Артур Конан Дойл / Arthur Conan Doyle
Описание:Сериал является своеобразным рассказом о процессе создания персонажа Шерлока Холмса. Согласно сюжету, после знакомства в университете доктор Джозеф Белл шокирует своим «методом дедукции» Артура Конана Дойла, а затем приглашает его к себе практикантом и помощником. Дойл и доктор Белл становятся близкими друзьями и начинают совместно проводить расследования разных преступлений, которые в итоге создают в голове у Дойла образ нового вымышленного сыщика.
Качество: DVD5
Формат: DVD-Video
Видео кодек: MPEG2
Аудио кодек: AC3
Видео: PAL 16:9 (720x576) VBR, ~8500 kbps
Аудио #1: Dolby AC3, 6 ch, 384 Kbps [Russian]
Аудио #2: Dolby AC3, 6 ch, 384 Kbps [English]

Описание серий и дополнительная информация

Фильм 1 (Мрачное начало Шерлока Холмса / The Dark Beginnings of Sherlock Holmes)

Описание:В конце 70-х годов XIX века Артур Конан Дойл, изучая медицину в Эдинбургском университете, знакомится с профессором Джозефом Беллом, разработавшим новаторский метод криминального расследования. Настроенный поначалу скептически, Дойл по стечению обстоятельств втягивает Белла в запутанную историю, в которой переплетаются серия загадочных отравлений, зарождение суфражистского движения, первая любовь молодого студента и даже случившиеся десятью годами позже преступления Джека Потрошителя...
В ролях:
Долли Уэллс / Dolly Wells ... Элспет Скотт / Elspeth Scott
Чарльз Данс / Charles Dance ... сэр Генри Карлайл / Sir Henry Carlyle
Алек Ньюман / Alec Newman ... Томас Нейлл / Thomas Neill
Сара Колье / Sarah Collier ... Мэри Дойл / Mary Doyle
Джон Бетт / John Bett ... Чарльз Дойл / Charles Doyle

DVDInfo

Title: sys
Size: 4.15 Gb ( 4 349 984 KBytes ) - DVD-5
Enabled regions: 1, 2, 3, 4, 5, 6, 7, 8
VTS_01 :
Play Length: 00:00:10
Video: PAL 16:9 (720x576) VBR, Auto Pan&Scan, Auto Letterboxed
VTS_02 :
Play Length: 00:00:07
Video: PAL 16:9 (720x576) VBR, Auto Pan&Scan, Auto Letterboxed
Audio:
English (Dolby AC3, 6 ch)
VTS_03 :
Play Length: 00:01:58
Video: PAL 16:9 (720x576) VBR, Auto Pan&Scan
Audio:
Russian (Dolby AC3, 2 ch)
Italiano (Dolby AC3, 2 ch)
VTS_04 :
Play Length: 00:01:57
Video: PAL 16:9 (720x576) VBR, Auto Pan&Scan
Audio:
Russian (Dolby AC3, 2 ch)
Francais (Dolby AC3, 2 ch)
VTS_05 :
Play Length: 00:03:51
Video: PAL 16:9 (720x576) VBR, Auto Pan&Scan
Audio:
Russian (Dolby AC3, 2 ch)
English (Dolby AC3, 2 ch)
VTS_06 :
Play Length: 01:42:41
Video: PAL 4:3 (720x576) VBR
Audio:
Russian (Dolby AC3, 6 ch)
English (Dolby AC3, 6 ch)
Subtitles:
Russian
Menu Video:
PAL 16:9 (720x576) VBR
Auto Pan&Scan, Auto Letterboxed
Menu Subtitles:
Not specified
Menu English Language Unit :
Root Menu

MediaInfo

General
VTS_06_1.VOB
Format : MPEG-PS
File size : 1 024 MiB
Duration : 27mn 54s
Overall bit rate : 5 128 Kbps
Video
ID : 224 (0xE0)
Format : MPEG Video
Format version : Version 2
Format profile : Main@Main
Format settings, BVOP : Yes
Format settings, Matrix : Default
Duration : 27mn 54s
Bit rate mode : Variable
Bit rate : 4 258 Kbps
Nominal bit rate : 8 300 Kbps
Width : 720 pixels
Height : 576 pixels
Display aspect ratio : 4:3
Frame rate : 25.000 fps
Standard : PAL
Color space : YUV
Chroma subsampling : 4:2:0
Bit depth : 8 bits
Scan type : Interlaced
Scan order : Top Field First
Bits/(Pixel*Frame) : 0.411
Stream size : 850 MiB (83%)
Audio #1
ID : 128 (0x80)
Format : AC-3
Format/Info : Audio Coding 3
Mode extension : CM (complete main)
Duration : 27mn 54s
Bit rate mode : Constant
Bit rate : 384 Kbps
Channel(s) : 6 channels
Channel positions : Front: L C R, Side: L R, LFE
Sampling rate : 48.0 KHz
Bit depth : 16 bits
Stream size : 76.7 MiB (7%)
Audio #2
ID : 129 (0x81)
Format : AC-3
Format/Info : Audio Coding 3
Mode extension : CM (complete main)
Duration : 27mn 54s
Bit rate mode : Constant
Bit rate : 384 Kbps
Channel(s) : 6 channels
Channel positions : Front: L C R, Side: L R, LFE
Sampling rate : 48.0 KHz
Bit depth : 16 bits
Stream size : 76.7 MiB (7%)
Text
ID : 32 (0x20)
Format : RLE
Format/Info : Run-length encoding
Duration : 27mn 49s
Video delay : 3s 600ms
Menu-General
VTS_06_2
Format : MPEG-PS
File size : 1 024 MiB
Duration : 27mn 55s
Overall bit rate : 5 126 Kbps
Video
ID : 224 (0xE0)
Format : MPEG Video
Format version : Version 2
Format profile : Main@Main
Format settings, BVOP : Yes
Format settings, Matrix : Default
Format settings, GOP : M=3, N=13
Duration : 27mn 55s
Bit rate mode : Variable
Bit rate : 4 256 Kbps
Nominal bit rate : 8 300 Kbps
Width : 720 pixels
Height : 576 pixels
Display aspect ratio : 4:3
Frame rate : 25.000 fps
Standard : PAL
Color space : YUV
Chroma subsampling : 4:2:0
Bit depth : 8 bits
Scan type : Interlaced
Scan order : Top Field First
Bits/(Pixel*Frame) : 0.411
Stream size : 850 MiB (83%)
Audio #1
ID : 128 (0x80)
Format : AC-3
Format/Info : Audio Coding 3
Mode extension : CM (complete main)
Duration : 27mn 55s
Bit rate mode : Constant
Bit rate : 384 Kbps
Channel(s) : 6 channels
Channel positions : Front: L C R, Side: L R, LFE
Sampling rate : 48.0 KHz
Bit depth : 16 bits
Video delay : -456ms
Stream size : 76.7 MiB (7%)
Audio #2
ID : 129 (0x81)
Format : AC-3
Format/Info : Audio Coding 3
Mode extension : CM (complete main)
Duration : 27mn 55s
Bit rate mode : Constant
Bit rate : 384 Kbps
Channel(s) : 6 channels
Channel positions : Front: L C R, Side: L R, LFE
Sampling rate : 48.0 KHz
Bit depth : 16 bits
Video delay : -456ms
Stream size : 76.7 MiB (7%)
Text
ID : 32 (0x20)
Format : RLE
Format/Info : Run-length encoding
Duration : 27mn 49s
Video delay : 2s 240ms
Menu-General
VTS_06_3
Format : MPEG-PS
File size : 1 024 MiB
Duration : 26mn 21s
Overall bit rate : 5 432 Kbps
Video
ID : 224 (0xE0)
Format : MPEG Video
Format version : Version 2
Format profile : Main@Main
Format settings, BVOP : Yes
Format settings, Matrix : Default
Format settings, GOP : M=3, N=13
Duration : 26mn 21s
Bit rate mode : Variable
Bit rate : 4 556 Kbps
Nominal bit rate : 8 300 Kbps
Width : 720 pixels
Height : 576 pixels
Display aspect ratio : 4:3
Frame rate : 25.000 fps
Standard : PAL
Color space : YUV
Chroma subsampling : 4:2:0
Bit depth : 8 bits
Scan type : Interlaced
Scan order : Top Field First
Bits/(Pixel*Frame) : 0.439
Stream size : 859 MiB (84%)
Audio #1
ID : 128 (0x80)
Format : AC-3
Format/Info : Audio Coding 3
Mode extension : CM (complete main)
Duration : 26mn 21s
Bit rate mode : Constant
Bit rate : 384 Kbps
Channel(s) : 6 channels
Channel positions : Front: L C R, Side: L R, LFE
Sampling rate : 48.0 KHz
Bit depth : 16 bits
Video delay : -440ms
Stream size : 72.4 MiB (7%)
Audio #2
ID : 129 (0x81)
Format : AC-3
Format/Info : Audio Coding 3
Mode extension : CM (complete main)
Duration : 26mn 21s
Bit rate mode : Constant
Bit rate : 384 Kbps
Channel(s) : 6 channels
Channel positions : Front: L C R, Side: L R, LFE
Sampling rate : 48.0 KHz
Bit depth : 16 bits
Video delay : -440ms
Stream size : 72.4 MiB (7%)
Text
ID : 32 (0x20)
Format : RLE
Format/Info : Run-length encoding
Duration : 26mn 16s
Video delay : 2s 400ms
Menu-General
VTS_06_4
Format : MPEG-PS
File size : 799 MiB
Duration : 20mn 29s
Overall bit rate : 5 448 Kbps
Video
ID : 224 (0xE0)
Format : MPEG Video
Format version : Version 2
Format profile : Main@Main
Format settings, BVOP : Yes
Format settings, Matrix : Default
Format settings, GOP : M=3, N=13
Duration : 20mn 29s
Bit rate mode : Variable
Bit rate : 4 571 Kbps
Nominal bit rate : 8 300 Kbps
Width : 720 pixels
Height : 576 pixels
Display aspect ratio : 4:3
Frame rate : 25.000 fps
Standard : PAL
Color space : YUV
Chroma subsampling : 4:2:0
Bit depth : 8 bits
Scan type : Interlaced
Scan order : Top Field First
Bits/(Pixel*Frame) : 0.441
Stream size : 670 MiB (84%)
Audio #1
ID : 128 (0x80)
Format : AC-3
Format/Info : Audio Coding 3
Mode extension : CM (complete main)
Duration : 20mn 29s
Bit rate mode : Constant
Bit rate : 384 Kbps
Channel(s) : 6 channels
Channel positions : Front: L C R, Side: L R, LFE
Sampling rate : 48.0 KHz
Bit depth : 16 bits
Video delay : -544ms
Stream size : 56.3 MiB (7%)
Audio #2
ID : 129 (0x81)
Format : AC-3
Format/Info : Audio Coding 3
Mode extension : CM (complete main)
Duration : 20mn 29s
Bit rate mode : Constant
Bit rate : 384 Kbps
Channel(s) : 6 channels
Channel positions : Front: L C R, Side: L R, LFE
Sampling rate : 48.0 KHz
Bit depth : 16 bits
Video delay : -544ms
Stream size : 56.3 MiB (7%)
Text
ID : 32 (0x20)
Format : RLE
Format/Info : Run-length encoding
Video delay : 2s 0ms
Menu

Фильм 2 (Глаза пациентки / The Patient's Eyes)

Описание:Артур Конан Дойл оканчивает медицинский факультет Эдинбургского университета и открывает собственную практику. Его пациенты поначалу немногочисленны, но среди них есть девушка, к которой он испытывает не только профессиональный интерес. Помимо редкой глазной болезни, она страдает странным наваждением: каждый раз, проезжая на велосипеде по лесной дороге, девушка видит зловещую фигуру в тёмном плаще, следующую за ней. Окружающие считают это галлюцинацией, однако Дойл не столь категоричен. Он предлагает юной леди свою помощь и решает провести небольшое частное расследование...
В ролях:
Кэти Блейк / Katie Blake ... Хезер / Heather
Саймон Куортерман / Simon Quarterman ... Бейнс / Baynes
Эндрю Вуделл / Andrew Woodall ... Гринвелл / Greenwell
Саймон Чендлер / Simon Chandler ... инспектор Уорнер / Inspector Warner

DVDInfo

Title: sys
Size: 3.78 Gb ( 3 961 602 KBytes ) - DVD-5
Enabled regions: 1, 2, 3, 4, 5, 6, 7, 8
VTS_01 :
Play Length: 00:00:10
Video: PAL 16:9 (720x576) VBR, Auto Pan&Scan, Auto Letterboxed
VTS_02 :
Play Length: 00:00:07
Video: PAL 16:9 (720x576) VBR, Auto Pan&Scan, Auto Letterboxed
Audio:
English (Dolby AC3, 6 ch)
VTS_03 :
Play Length: 01:29:01
Video: PAL 16:9 (720x576) VBR, Auto Pan&Scan, Auto Letterboxed
Audio:
Russian (Dolby AC3, 6 ch)
English (Dolby AC3, 6 ch)
Subtitles:
Russian
VTS_04 :
Play Length: 00:01:28
Video: PAL 16:9 (720x576) VBR, Auto Pan&Scan
Audio:
Russian (Dolby AC3, 2 ch)
Francais (Dolby AC3, 2 ch)
VTS_05 :
Play Length: 00:01:42
Video: PAL 4:3 (720x576) VBR
Audio:
Russian (Dolby AC3, 2 ch)
English (Dolby AC3, 2 ch)
VTS_06 :
Play Length: 00:02:32
Video: PAL 16:9 (720x576) VBR, Auto Pan&Scan
Audio:
Russian (Dolby AC3, 2 ch)
Francais (Dolby AC3, 2 ch)
VTS_07 :
Play Length: 00:02:08
Video: PAL 4:3 (720x576) VBR
Audio:
Russian (Dolby AC3, 2 ch)
English (Dolby AC3, 2 ch)
VTS_08 :
Play Length: 00:01:00
Video: PAL 4:3 (720x576) VBR
Audio:
English (Dolby AC3, 6 ch)
English (Dolby AC3, 6 ch)
Menu Video:
PAL 16:9 (720x576) VBR
Auto Pan&Scan, Auto Letterboxed
Menu Subtitles:
Not specified
Menu English Language Unit :
Root Menu

MediaInfo

General
VTS_03_1
Format : MPEG-PS
File size : 1 024 MiB
Duration : 27mn 24s
Overall bit rate : 5 222 Kbps
Video
ID : 224 (0xE0)
Format : MPEG Video
Format version : Version 2
Format profile : Main@Main
Format settings, BVOP : Yes
Format settings, Matrix : Default
Duration : 27mn 24s
Bit rate mode : Variable
Bit rate : 4 350 Kbps
Nominal bit rate : 8 300 Kbps
Width : 720 pixels
Height : 576 pixels
Display aspect ratio : 16:9
Frame rate : 25.000 fps
Standard : PAL
Color space : YUV
Chroma subsampling : 4:2:0
Bit depth : 8 bits
Scan type : Interlaced
Scan order : Top Field First
Bits/(Pixel*Frame) : 0.420
Stream size : 853 MiB (83%)
Audio #1
ID : 128 (0x80)
Format : AC-3
Format/Info : Audio Coding 3
Mode extension : CM (complete main)
Duration : 27mn 24s
Bit rate mode : Constant
Bit rate : 384 Kbps
Channel(s) : 6 channels
Channel positions : Front: L C R, Side: L R, LFE
Sampling rate : 48.0 KHz
Bit depth : 16 bits
Stream size : 75.3 MiB (7%)
Audio #2
ID : 129 (0x81)
Format : AC-3
Format/Info : Audio Coding 3
Mode extension : CM (complete main)
Duration : 27mn 24s
Bit rate mode : Constant
Bit rate : 384 Kbps
Channel(s) : 6 channels
Channel positions : Front: L C R, Side: L R, LFE
Sampling rate : 48.0 KHz
Bit depth : 16 bits
Stream size : 75.3 MiB (7%)
Text
ID : 32 (0x20)
Format : RLE
Format/Info : Run-length encoding
Menu-General
VTS_03_2
Format : MPEG-PS
File size : 1 024 MiB
Duration : 26mn 25s
Overall bit rate : 5 416 Kbps
Video
ID : 224 (0xE0)
Format : MPEG Video
Format version : Version 2
Format profile : Main@Main
Format settings, BVOP : Yes
Format settings, Matrix : Default
Format settings, GOP : M=3, N=13
Duration : 26mn 25s
Bit rate mode : Variable
Bit rate : 4 540 Kbps
Nominal bit rate : 8 300 Kbps
Width : 720 pixels
Height : 576 pixels
Display aspect ratio : 16:9
Frame rate : 25.000 fps
Standard : PAL
Color space : YUV
Chroma subsampling : 4:2:0
Bit depth : 8 bits
Scan type : Interlaced
Scan order : Top Field First
Bits/(Pixel*Frame) : 0.438
Stream size : 858 MiB (84%)
Audio #1
ID : 128 (0x80)
Format : AC-3
Format/Info : Audio Coding 3
Mode extension : CM (complete main)
Duration : 26mn 25s
Bit rate mode : Constant
Bit rate : 384 Kbps
Channel(s) : 6 channels
Channel positions : Front: L C R, Side: L R, LFE
Sampling rate : 48.0 KHz
Bit depth : 16 bits
Video delay : -568ms
Stream size : 72.6 MiB (7%)
Audio #2
ID : 129 (0x81)
Format : AC-3
Format/Info : Audio Coding 3
Mode extension : CM (complete main)
Duration : 26mn 25s
Bit rate mode : Constant
Bit rate : 384 Kbps
Channel(s) : 6 channels
Channel positions : Front: L C R, Side: L R, LFE
Sampling rate : 48.0 KHz
Bit depth : 16 bits
Video delay : -568ms
Stream size : 72.6 MiB (7%)
Text
ID : 32 (0x20)
Format : RLE
Format/Info : Run-length encoding
Duration : 26mn 21s
Video delay : 2s 360ms
Menu-General
VTS_03_3
Format : MPEG-PS
File size : 1 024 MiB
Duration : 26mn 15s
Overall bit rate : 5 451 Kbps
Video
ID : 224 (0xE0)
Format : MPEG Video
Format version : Version 2
Format profile : Main@Main
Format settings, BVOP : Yes
Format settings, Matrix : Default
Format settings, GOP : M=3, N=13
Duration : 26mn 15s
Bit rate mode : Variable
Bit rate : 4 575 Kbps
Nominal bit rate : 8 300 Kbps
Width : 720 pixels
Height : 576 pixels
Display aspect ratio : 16:9
Frame rate : 25.000 fps
Standard : PAL
Color space : YUV
Chroma subsampling : 4:2:0
Bit depth : 8 bits
Scan type : Interlaced
Scan order : Top Field First
Bits/(Pixel*Frame) : 0.441
Stream size : 859 MiB (84%)
Audio #1
ID : 128 (0x80)
Format : AC-3
Format/Info : Audio Coding 3
Mode extension : CM (complete main)
Duration : 26mn 15s
Bit rate mode : Constant
Bit rate : 384 Kbps
Channel(s) : 6 channels
Channel positions : Front: L C R, Side: L R, LFE
Sampling rate : 48.0 KHz
Bit depth : 16 bits
Video delay : -680ms
Stream size : 72.1 MiB (7%)
Audio #2
ID : 129 (0x81)
Format : AC-3
Format/Info : Audio Coding 3
Mode extension : CM (complete main)
Duration : 26mn 15s
Bit rate mode : Constant
Bit rate : 384 Kbps
Channel(s) : 6 channels
Channel positions : Front: L C R, Side: L R, LFE
Sampling rate : 48.0 KHz
Bit depth : 16 bits
Video delay : -680ms
Stream size : 72.1 MiB (7%)
Text
ID : 32 (0x20)
Format : RLE
Format/Info : Run-length encoding
Video delay : 1s 120ms
Menu-General
VTS_03_4
Format : MPEG-PS
File size : 394 MiB
Duration : 8mn 55s
Overall bit rate : 6 169 Kbps
Video
ID : 224 (0xE0)
Format : MPEG Video
Format version : Version 2
Format profile : Main@Main
Format settings, BVOP : Yes
Format settings, Matrix : Default
Format settings, GOP : M=3, N=13
Duration : 8mn 54s
Bit rate mode : Variable
Bit rate : 5 279 Kbps
Nominal bit rate : 8 300 Kbps
Width : 720 pixels
Height : 576 pixels
Display aspect ratio : 16:9
Frame rate : 25.000 fps
Standard : PAL
Color space : YUV
Chroma subsampling : 4:2:0
Bit depth : 8 bits
Scan type : Interlaced
Scan order : Top Field First
Bits/(Pixel*Frame) : 0.509
Stream size : 336 MiB (85%)
Audio #1
ID : 128 (0x80)
Format : AC-3
Format/Info : Audio Coding 3
Mode extension : CM (complete main)
Duration : 8mn 55s
Bit rate mode : Constant
Bit rate : 384 Kbps
Channel(s) : 6 channels
Channel positions : Front: L C R, Side: L R, LFE
Sampling rate : 48.0 KHz
Bit depth : 16 bits
Video delay : -696ms
Stream size : 24.5 MiB (6%)
Audio #2
ID : 129 (0x81)
Format : AC-3
Format/Info : Audio Coding 3
Mode extension : CM (complete main)
Duration : 8mn 55s
Bit rate mode : Constant
Bit rate : 384 Kbps
Channel(s) : 6 channels
Channel positions : Front: L C R, Side: L R, LFE
Sampling rate : 48.0 KHz
Bit depth : 16 bits
Video delay : -696ms
Stream size : 24.5 MiB (6%)
Text
ID : 32 (0x20)
Format : RLE
Format/Info : Run-length encoding
Video delay : 200ms
Menu

Фильм 3 (Кресло фотографа / The Photographer's Chair)

Описание:Судьба снова сводит доктора Артура Конана Дойла с его учителем, мастером дедуктивного метода Джозефом Беллом. На этот раз им предстоит расследовать череду жестоких убийств, происходящих на побережье Брайтона. Дело оказывается весьма непростым и интересным. Чтобы найти связь между жертвами, Дойлу и Беллу придётся детально изучить самые разные стороны жизни английского общества XIX века — от таинственного мира спиритических кружков до сугубо материалистического процесса создания фотографий...
В ролях:
Клэр Харман / Claire Harman ... Элспет / Elspeth
Амбер Нобль / Amber Noble ... Полли / Polly
Саймон Чендлер / Simon Chandler ... инспектор Уорнер / Inspector Warner
Морган Джонс / Morgan Jones ... сержант Ричардс / Sgt. Richards

DVDInfo

Title: sys
Size: 3.99 Gb ( 4 179 150 KBytes ) - DVD-5
Enabled regions: 1, 2, 3, 4, 5, 6, 7, 8
VTS_01 :
Play Length: 00:00:10
Video: PAL 16:9 (720x576) VBR, Auto Pan&Scan, Auto Letterboxed
VTS_02 :
Play Length: 00:00:07
Video: PAL 16:9 (720x576) VBR, Auto Pan&Scan, Auto Letterboxed
Audio:
English (Dolby AC3, 6 ch)
VTS_03 :
Play Length: 01:28:20
Video: PAL 16:9 (720x576) VBR, Auto Pan&Scan, Auto Letterboxed
Audio:
Russian (Dolby AC3, 6 ch)
English (Dolby AC3, 6 ch)
Subtitles:
Russian
VTS_04 :
Play Length: 00:02:21
Video: PAL 16:9 (720x576) VBR, Auto Pan&Scan
Audio:
Russian (Dolby AC3, 2 ch)
Deutsch (Dolby AC3, 2 ch)
VTS_05 :
Play Length: 00:01:36
Video: PAL 4:3 (720x576) VBR
Audio:
Russian (Dolby AC3, 2 ch)
Francais (Dolby AC3, 2 ch)
VTS_06 :
Play Length: 00:02:07
Video: PAL 16:9 (720x576) VBR, Auto Pan&Scan
Audio:
Russian (Dolby AC3, 2 ch)
Francais (Dolby AC3, 2 ch)
VTS_07 :
Play Length: 00:02:01
Video: PAL 16:9 (720x576) VBR, Auto Pan&Scan
Audio:
Russian (Dolby AC3, 2 ch)
Francais (Dolby AC3, 2 ch)
VTS_08 :
Play Length: 00:03:47
Video: PAL 16:9 (720x576) VBR, Auto Pan&Scan
Audio:
Francais (Dolby AC3, 2 ch)
Francais (Dolby AC3, 2 ch)
Menu Video:
PAL 16:9 (720x576) VBR
Auto Pan&Scan, Auto Letterboxed
Menu Subtitles:
Not specified
Menu English Language Unit :
Root Menu

MediaInfo

General
VTS_03_1
Format : MPEG-PS
File size : 1 024 MiB
Duration : 26mn 9s
Overall bit rate : 5 471 Kbps
Video
ID : 224 (0xE0)
Format : MPEG Video
Format version : Version 2
Format profile : Main@Main
Format settings, BVOP : Yes
Format settings, Matrix : Default
Format settings, GOP : M=3, N=13
Duration : 26mn 9s
Bit rate mode : Variable
Bit rate : 4 594 Kbps
Nominal bit rate : 8 300 Kbps
Width : 720 pixels
Height : 576 pixels
Display aspect ratio : 16:9
Frame rate : 25.000 fps
Standard : PAL
Color space : YUV
Chroma subsampling : 4:2:0
Bit depth : 8 bits
Scan type : Interlaced
Scan order : Top Field First
Bits/(Pixel*Frame) : 0.443
Stream size : 860 MiB (84%)
Audio #1
ID : 128 (0x80)
Format : AC-3
Format/Info : Audio Coding 3
Mode extension : CM (complete main)
Duration : 26mn 9s
Bit rate mode : Constant
Bit rate : 384 Kbps
Channel(s) : 6 channels
Channel positions : Front: L C R, Side: L R, LFE
Sampling rate : 48.0 KHz
Bit depth : 16 bits
Stream size : 71.9 MiB (7%)
Audio #2
ID : 129 (0x81)
Format : AC-3
Format/Info : Audio Coding 3
Mode extension : CM (complete main)
Duration : 26mn 9s
Bit rate mode : Constant
Bit rate : 384 Kbps
Channel(s) : 6 channels
Channel positions : Front: L C R, Side: L R, LFE
Sampling rate : 48.0 KHz
Bit depth : 16 bits
Stream size : 71.9 MiB (7%)
Menu-General
VTS_03_2
Format : MPEG-PS
File size : 1 024 MiB
Duration : 25mn 50s
Overall bit rate : 5 539 Kbps
Video
ID : 224 (0xE0)
Format : MPEG Video
Format version : Version 2
Format profile : Main@Main
Format settings, BVOP : Yes
Format settings, Matrix : Default
Format settings, GOP : M=3, N=13
Duration : 25mn 50s
Bit rate mode : Variable
Bit rate : 4 660 Kbps
Nominal bit rate : 8 300 Kbps
Width : 720 pixels
Height : 576 pixels
Display aspect ratio : 16:9
Frame rate : 25.000 fps
Standard : PAL
Color space : YUV
Chroma subsampling : 4:2:0
Bit depth : 8 bits
Scan type : Interlaced
Scan order : Top Field First
Bits/(Pixel*Frame) : 0.449
Stream size : 861 MiB (84%)
Audio #1
ID : 128 (0x80)
Format : AC-3
Format/Info : Audio Coding 3
Mode extension : CM (complete main)
Duration : 25mn 50s
Bit rate mode : Constant
Bit rate : 384 Kbps
Channel(s) : 6 channels
Channel positions : Front: L C R, Side: L R, LFE
Sampling rate : 48.0 KHz
Bit depth : 16 bits
Video delay : -568ms
Stream size : 71.0 MiB (7%)
Audio #2
ID : 129 (0x81)
Format : AC-3
Format/Info : Audio Coding 3
Mode extension : CM (complete main)
Duration : 25mn 50s
Bit rate mode : Constant
Bit rate : 384 Kbps
Channel(s) : 6 channels
Channel positions : Front: L C R, Side: L R, LFE
Sampling rate : 48.0 KHz
Bit depth : 16 bits
Video delay : -568ms
Stream size : 71.0 MiB (7%)
Text
ID : 32 (0x20)
Format : RLE
Format/Info : Run-length encoding
Menu-General
VTS_03_3
Format : MPEG-PS
File size : 1 024 MiB
Duration : 25mn 22s
Overall bit rate : 5 639 Kbps
Video
ID : 224 (0xE0)
Format : MPEG Video
Format version : Version 2
Format profile : Main@Main
Format settings, BVOP : Yes
Format settings, Matrix : Default
Format settings, GOP : M=3, N=13
Duration : 25mn 22s
Bit rate mode : Variable
Bit rate : 4 759 Kbps
Nominal bit rate : 8 300 Kbps
Width : 720 pixels
Height : 576 pixels
Display aspect ratio : 16:9
Frame rate : 25.000 fps
Standard : PAL
Color space : YUV
Chroma subsampling : 4:2:0
Bit depth : 8 bits
Scan type : Interlaced
Scan order : Top Field First
Bits/(Pixel*Frame) : 0.459
Stream size : 864 MiB (84%)
Audio #1
ID : 128 (0x80)
Format : AC-3
Format/Info : Audio Coding 3
Mode extension : CM (complete main)
Duration : 25mn 22s
Bit rate mode : Constant
Bit rate : 384 Kbps
Channel(s) : 6 channels
Channel positions : Front: L C R, Side: L R, LFE
Sampling rate : 48.0 KHz
Bit depth : 16 bits
Video delay : -560ms
Stream size : 69.7 MiB (7%)
Audio #2
ID : 129 (0x81)
Format : AC-3
Format/Info : Audio Coding 3
Mode extension : CM (complete main)
Duration : 25mn 22s
Bit rate mode : Constant
Bit rate : 384 Kbps
Channel(s) : 6 channels
Channel positions : Front: L C R, Side: L R, LFE
Sampling rate : 48.0 KHz
Bit depth : 16 bits
Video delay : -560ms
Stream size : 69.7 MiB (7%)
Text
ID : 32 (0x20)
Format : RLE
Format/Info : Run-length encoding
Menu-General
VTS_03_4
Format : MPEG-PS
File size : 395 MiB
Duration : 10mn 56s
Overall bit rate : 5 045 Kbps
Video
ID : 224 (0xE0)
Format : MPEG Video
Format version : Version 2
Format profile : Main@Main
Format settings, BVOP : Yes
Format settings, Matrix : Default
Format settings, GOP : M=3, N=13
Duration : 10mn 55s
Bit rate mode : Variable
Bit rate : 4 177 Kbps
Nominal bit rate : 8 300 Kbps
Width : 720 pixels
Height : 576 pixels
Display aspect ratio : 16:9
Frame rate : 25.000 fps
Standard : PAL
Color space : YUV
Chroma subsampling : 4:2:0
Bit depth : 8 bits
Scan type : Interlaced
Scan order : Top Field First
Bits/(Pixel*Frame) : 0.403
Stream size : 327 MiB (83%)
Audio #1
ID : 128 (0x80)
Format : AC-3
Format/Info : Audio Coding 3
Mode extension : CM (complete main)
Duration : 10mn 56s
Bit rate mode : Constant
Bit rate : 384 Kbps
Channel(s) : 6 channels
Channel positions : Front: L C R, Side: L R, LFE
Sampling rate : 48.0 KHz
Bit depth : 16 bits
Video delay : -664ms
Stream size : 30.1 MiB (8%)
Audio #2
ID : 129 (0x81)
Format : AC-3
Format/Info : Audio Coding 3
Mode extension : CM (complete main)
Duration : 10mn 56s
Bit rate mode : Constant
Bit rate : 384 Kbps
Channel(s) : 6 channels
Channel positions : Front: L C R, Side: L R, LFE
Sampling rate : 48.0 KHz
Bit depth : 16 bits
Video delay : -664ms
Stream size : 30.1 MiB (8%)
Text
ID : 32 (0x20)
Format : RLE
Format/Info : Run-length encoding
Video delay : 2s 320ms
Menu

Фильм 4 (Царство костей / The Kingdom of Bones)

Описание:Одному из друзей Артура Конана Дойла, куратору музея Рубену Проктору, удаётся приобрести египетскую мумию. Экспонат находится в ужасном состоянии, но Рубен уверен, что он способен принести ему известность и открыть двери в мир больших возможностей. Молодой человек решает организовать публичную лекцию, на которой известные врачи, сняв с мумии полотно, раскроют тайну смерти молодой египетской принцессы. Однако блестящий план оборачивается крупным скандалом: вместо древней мумии под полотном оказывается труп мужчины, умершего каких-то две недели назад. Конан Дойл и профессор Белл немедленно приступают к расследованию этой, уже не археологической, а криминальной тайны...
В ролях:
Криспин Бонем-Картер / Crispin Bonham-Carter ... Рубен Проктор / Reuben Proctor
Мосси Смит / Mossie Smith ... миссис Уильямс / Mrs. Williams
Саймон Чендлер / Simon Chandler ... инспектор Уорнер / Inspector Warner
Иен МакНиз / Ian McNeice ... Хейвуд Донован / Haywood Donovan

DVDInfo

Title: sys
Size: 3.82 Gb ( 4 002 514 KBytes ) - DVD-5
Enabled regions: 1, 2, 3, 4, 5, 6, 7, 8
VTS_01 :
Play Length: 00:00:10
Video: PAL 16:9 (720x576) VBR, Auto Pan&Scan, Auto Letterboxed
VTS_02 :
Play Length: 00:00:07
Video: PAL 16:9 (720x576) VBR, Auto Pan&Scan, Auto Letterboxed
Audio:
English (Dolby AC3, 6 ch)
VTS_03 :
Play Length: 01:28:07
Video: PAL 16:9 (720x576) VBR, Auto Pan&Scan, Auto Letterboxed
Audio:
Russian (Dolby AC3, 6 ch)
English (Dolby AC3, 6 ch)
Subtitles:
Russian
VTS_04 :
Play Length: 00:01:16
Video: PAL 4:3 (720x576) VBR
Audio:
Japanese (Dolby AC3, 2 ch)
Japanese (Dolby AC3, 2 ch)
VTS_05 :
Play Length: 00:02:20
Video: PAL 4:3 (720x576) VBR
Audio:
Not specified (Dolby AC3, 2 ch)
Not specified (Dolby AC3, 2 ch)
VTS_06 :
Play Length: 00:01:49
Video: PAL 4:3 (720x576) VBR
Audio:
Russian (Dolby AC3, 2 ch)
Japanese (Dolby AC3, 2 ch)
VTS_07 :
Play Length: 00:02:02
Video: PAL 4:3 (720x576) VBR
Audio:
Japanese (Dolby AC3, 2 ch)
Japanese (Dolby AC3, 2 ch)
VTS_08 :
Play Length: 00:03:28
Video: PAL 16:9 (720x576) VBR, Auto Pan&Scan
Audio:
Japanese (Dolby AC3, 2 ch)
Japanese (Dolby AC3, 2 ch)
Menu Video:
PAL 16:9 (720x576) VBR
Auto Pan&Scan, Auto Letterboxed
Menu Subtitles:
Not specified
Menu English Language Unit :
Root Menu

MediaInfo

General
VTS_03_1
Format : MPEG-PS
File size : 1 024 MiB
Duration : 27mn 22s
Overall bit rate : 5 230 Kbps
Video
ID : 224 (0xE0)
Format : MPEG Video
Format version : Version 2
Format profile : Main@Main
Format settings, BVOP : Yes
Format settings, Matrix : Default
Format settings, GOP : M=3, N=13
Duration : 27mn 22s
Bit rate mode : Variable
Bit rate : 4 358 Kbps
Nominal bit rate : 8 300 Kbps
Width : 720 pixels
Height : 576 pixels
Display aspect ratio : 16:9
Frame rate : 25.000 fps
Standard : PAL
Color space : YUV
Chroma subsampling : 4:2:0
Bit depth : 8 bits
Scan type : Interlaced
Scan order : Top Field First
Bits/(Pixel*Frame) : 0.420
Stream size : 853 MiB (83%)
Audio #1
ID : 128 (0x80)
Format : AC-3
Format/Info : Audio Coding 3
Mode extension : CM (complete main)
Duration : 27mn 22s
Bit rate mode : Constant
Bit rate : 384 Kbps
Channel(s) : 6 channels
Channel positions : Front: L C R, Side: L R, LFE
Sampling rate : 48.0 KHz
Bit depth : 16 bits
Stream size : 75.2 MiB (7%)
Audio #2
ID : 129 (0x81)
Format : AC-3
Format/Info : Audio Coding 3
Mode extension : CM (complete main)
Duration : 27mn 22s
Bit rate mode : Constant
Bit rate : 384 Kbps
Channel(s) : 6 channels
Channel positions : Front: L C R, Side: L R, LFE
Sampling rate : 48.0 KHz
Bit depth : 16 bits
Stream size : 75.2 MiB (7%)
Text
ID : 32 (0x20)
Format : RLE
Format/Info : Run-length encoding
Menu-General
VTS_03_2
Format : MPEG-PS
File size : 1 024 MiB
Duration : 25mn 59s
Overall bit rate : 5 507 Kbps
Video
ID : 224 (0xE0)
Format : MPEG Video
Format version : Version 2
Format profile : Main@Main
Format settings, BVOP : Yes
Format settings, Matrix : Default
Duration : 25mn 59s
Bit rate mode : Variable
Bit rate : 4 629 Kbps
Nominal bit rate : 8 300 Kbps
Width : 720 pixels
Height : 576 pixels
Display aspect ratio : 16:9
Frame rate : 25.000 fps
Standard : PAL
Color space : YUV
Chroma subsampling : 4:2:0
Bit depth : 8 bits
Scan type : Interlaced
Scan order : Top Field First
Bits/(Pixel*Frame) : 0.447
Stream size : 860 MiB (84%)
Audio #1
ID : 128 (0x80)
Format : AC-3
Format/Info : Audio Coding 3
Mode extension : CM (complete main)
Duration : 25mn 59s
Bit rate mode : Constant
Bit rate : 384 Kbps
Channel(s) : 6 channels
Channel positions : Front: L C R, Side: L R, LFE
Sampling rate : 48.0 KHz
Bit depth : 16 bits
Video delay : -664ms
Stream size : 71.4 MiB (7%)
Audio #2
ID : 129 (0x81)
Format : AC-3
Format/Info : Audio Coding 3
Mode extension : CM (complete main)
Duration : 25mn 59s
Bit rate mode : Constant
Bit rate : 384 Kbps
Channel(s) : 6 channels
Channel positions : Front: L C R, Side: L R, LFE
Sampling rate : 48.0 KHz
Bit depth : 16 bits
Video delay : -664ms
Stream size : 71.4 MiB (7%)
Menu-General
VTS_03_3
Format : MPEG-PS
File size : 1 024 MiB
Duration : 25mn 51s
Overall bit rate : 5 537 Kbps
Video
ID : 224 (0xE0)
Format : MPEG Video
Format version : Version 2
Format profile : Main@Main
Format settings, BVOP : Yes
Format settings, Matrix : Default
Format settings, GOP : M=3, N=13
Duration : 25mn 51s
Bit rate mode : Variable
Bit rate : 4 659 Kbps
Nominal bit rate : 8 300 Kbps
Width : 720 pixels
Height : 576 pixels
Display aspect ratio : 16:9
Frame rate : 25.000 fps
Standard : PAL
Color space : YUV
Chroma subsampling : 4:2:0
Bit depth : 8 bits
Scan type : Interlaced
Scan order : Top Field First
Bits/(Pixel*Frame) : 0.449
Stream size : 861 MiB (84%)
Audio #1
ID : 128 (0x80)
Format : AC-3
Format/Info : Audio Coding 3
Mode extension : CM (complete main)
Duration : 25mn 51s
Bit rate mode : Constant
Bit rate : 384 Kbps
Channel(s) : 6 channels
Channel positions : Front: L C R, Side: L R, LFE
Sampling rate : 48.0 KHz
Bit depth : 16 bits
Video delay : -528ms
Stream size : 71.0 MiB (7%)
Audio #2
ID : 129 (0x81)
Format : AC-3
Format/Info : Audio Coding 3
Mode extension : CM (complete main)
Duration : 25mn 51s
Bit rate mode : Constant
Bit rate : 384 Kbps
Channel(s) : 6 channels
Channel positions : Front: L C R, Side: L R, LFE
Sampling rate : 48.0 KHz
Bit depth : 16 bits
Video delay : -528ms
Stream size : 71.0 MiB (7%)
Text
ID : 32 (0x20)
Format : RLE
Format/Info : Run-length encoding
Menu-General
VTS_03_4
Format : MPEG-PS
File size : 317 MiB
Duration : 8mn 54s
Overall bit rate : 4 980 Kbps
Video
ID : 224 (0xE0)
Format : MPEG Video
Format version : Version 2
Format profile : Main@Main
Format settings, BVOP : Yes
Format settings, Matrix : Default
Format settings, GOP : M=3, N=13
Duration : 8mn 53s
Bit rate mode : Variable
Bit rate : 4 113 Kbps
Nominal bit rate : 8 300 Kbps
Width : 720 pixels
Height : 576 pixels
Display aspect ratio : 16:9
Frame rate : 25.000 fps
Standard : PAL
Color space : YUV
Chroma subsampling : 4:2:0
Bit depth : 8 bits
Scan type : Interlaced
Scan order : Top Field First
Bits/(Pixel*Frame) : 0.397
Stream size : 262 MiB (83%)
Audio #1
ID : 128 (0x80)
Format : AC-3
Format/Info : Audio Coding 3
Mode extension : CM (complete main)
Duration : 8mn 54s
Bit rate mode : Constant
Bit rate : 384 Kbps
Channel(s) : 6 channels
Channel positions : Front: L C R, Side: L R, LFE
Sampling rate : 48.0 KHz
Bit depth : 16 bits
Video delay : -552ms
Stream size : 24.5 MiB (8%)
Audio #2
ID : 129 (0x81)
Format : AC-3
Format/Info : Audio Coding 3
Mode extension : CM (complete main)
Duration : 8mn 54s
Bit rate mode : Constant
Bit rate : 384 Kbps
Channel(s) : 6 channels
Channel positions : Front: L C R, Side: L R, LFE
Sampling rate : 48.0 KHz
Bit depth : 16 bits
Video delay : -552ms
Stream size : 24.5 MiB (8%)
Text
ID : 32 (0x20)
Format : RLE
Format/Info : Run-length encoding
Video delay : 960ms
Menu

Фильм 5 (Комбинация белого коня / The White Knight Stratagem)

Описание:Убийство единственного сына влиятельного промышленника заставляет полицию искать помощи у мастера дедуктивного метода профессора Белла. Однако дело осложняется взаимной неприязнью между Беллом и инспектором, ведущим расследование, — лейтенантом Блейни. Отношения настолько натянуты, что им необходим посредник, и Белл приглашает на эту незавидную роль своего бывшего ученика Артура Конана Дойла. Два сыщика, чья взаимная неприязнь мешает расследованию... но оба эти человека вызывают у Дойла искреннюю симпатию. Две взаимоисключающие версии... но в обеих Дойл видит рациональное зерно. Кто же окажется прав? Или ошибаются оба?
В ролях:
Рик Майаль / Rik Mayall ... лейтенант Дениэль Блени / Lt. Daniel Blaney
Аннетт Кросби / Annette Crosbie ... Маргарет Бут / Margaret Booth
Генри Иен Кузик / Henry Ian Cusick ... сержант Майкл Кларк / Sgt. Michael Clark
Рональд Пикап / Ronald Pickup ... сэр Джон Старр / Sir John Starr

DVDInfo

Title: sys
Size: 3.89 Gb ( 4 074 456 KBytes ) - DVD-5
Enabled regions: 1, 2, 3, 4, 5, 6, 7, 8
VTS_01 :
Play Length: 00:00:10
Video: PAL 16:9 (720x576) VBR, Auto Pan&Scan, Auto Letterboxed
VTS_02 :
Play Length: 00:00:07
Video: PAL 16:9 (720x576) VBR, Auto Pan&Scan, Auto Letterboxed
Audio:
English (Dolby AC3, 6 ch)
VTS_03 :
Play Length: 01:28:29
Video: PAL 16:9 (720x576) VBR, Auto Pan&Scan, Auto Letterboxed
Audio:
Russian (Dolby AC3, 6 ch)
English (Dolby AC3, 6 ch)
Subtitles:
Russian
VTS_04 :
Play Length: 00:04:36
Video: PAL 4:3 (720x576) VBR
Audio:
English (Dolby AC3, 2 ch)
English (Dolby AC3, 2 ch)
VTS_05 :
Play Length: 00:02:29
Video: PAL 4:3 (720x576) VBR
Audio:
English (Dolby AC3, 2 ch)
English (Dolby AC3, 2 ch)
VTS_06 :
Play Length: 00:01:46
Video: PAL 4:3 (720x576) VBR
Audio:
English (Dolby AC3, 2 ch)
English (Dolby AC3, 2 ch)
VTS_07 :
Play Length: 00:01:53
Video: PAL 4:3 (720x576) VBR
Audio:
Russian (Dolby AC3, 6 ch)
Francais (Dolby AC3, 6 ch)
VTS_08 :
Play Length: 00:01:18
Video: PAL 16:9 (720x576) VBR, Auto Pan&Scan
Audio:
Francais (Dolby AC3, 2 ch)
Francais (Dolby AC3, 2 ch)
Menu Video:
PAL 16:9 (720x576) VBR
Auto Pan&Scan, Auto Letterboxed
Menu Subtitles:
Not specified
Menu English Language Unit :
Root Menu

MediaInfo

General
VTS_03_1
Format : MPEG-PS
File size : 1 024 MiB
Duration : 25mn 46s
Overall bit rate : 5 554 Kbps
Video
ID : 224 (0xE0)
Format : MPEG Video
Format version : Version 2
Format profile : Main@Main
Format settings, BVOP : Yes
Format settings, Matrix : Default
Duration : 25mn 46s
Bit rate mode : Variable
Bit rate : 4 675 Kbps
Nominal bit rate : 8 300 Kbps
Width : 720 pixels
Height : 576 pixels
Display aspect ratio : 16:9
Frame rate : 25.000 fps
Standard : PAL
Color space : YUV
Chroma subsampling : 4:2:0
Bit depth : 8 bits
Scan type : Interlaced
Scan order : Top Field First
Bits/(Pixel*Frame) : 0.451
Stream size : 862 MiB (84%)
Audio #1
ID : 128 (0x80)
Format : AC-3
Format/Info : Audio Coding 3
Mode extension : CM (complete main)
Duration : 25mn 45s
Bit rate mode : Constant
Bit rate : 384 Kbps
Channel(s) : 6 channels
Channel positions : Front: L C R, Side: L R, LFE
Sampling rate : 48.0 KHz
Bit depth : 16 bits
Stream size : 70.8 MiB (7%)
Audio #2
ID : 129 (0x81)
Format : AC-3
Format/Info : Audio Coding 3
Mode extension : CM (complete main)
Duration : 25mn 45s
Bit rate mode : Constant
Bit rate : 384 Kbps
Channel(s) : 6 channels
Channel positions : Front: L C R, Side: L R, LFE
Sampling rate : 48.0 KHz
Bit depth : 16 bits
Stream size : 70.8 MiB (7%)
Menu-General
VTS_03_2
Format : MPEG-PS
File size : 1 024 MiB
Duration : 26mn 15s
Overall bit rate : 5 452 Kbps
Video
ID : 224 (0xE0)
Format : MPEG Video
Format version : Version 2
Format profile : Main@Main
Format settings, BVOP : Yes
Format settings, Matrix : Default
Format settings, GOP : M=3, N=13
Duration : 26mn 15s
Bit rate mode : Variable
Bit rate : 4 576 Kbps
Nominal bit rate : 8 300 Kbps
Width : 720 pixels
Height : 576 pixels
Display aspect ratio : 16:9
Frame rate : 25.000 fps
Standard : PAL
Color space : YUV
Chroma subsampling : 4:2:0
Bit depth : 8 bits
Scan type : Interlaced
Scan order : Top Field First
Bits/(Pixel*Frame) : 0.441
Stream size : 859 MiB (84%)
Audio #1
ID : 128 (0x80)
Format : AC-3
Format/Info : Audio Coding 3
Mode extension : CM (complete main)
Duration : 26mn 15s
Bit rate mode : Constant
Bit rate : 384 Kbps
Channel(s) : 6 channels
Channel positions : Front: L C R, Side: L R, LFE
Sampling rate : 48.0 KHz
Bit depth : 16 bits
Video delay : -528ms
Stream size : 72.1 MiB (7%)
Audio #2
ID : 129 (0x81)
Format : AC-3
Format/Info : Audio Coding 3
Mode extension : CM (complete main)
Duration : 26mn 15s
Bit rate mode : Constant
Bit rate : 384 Kbps
Channel(s) : 6 channels
Channel positions : Front: L C R, Side: L R, LFE
Sampling rate : 48.0 KHz
Bit depth : 16 bits
Video delay : -528ms
Stream size : 72.1 MiB (7%)
Menu-General
VTS_03_3
Format : MPEG-PS
File size : 1 024 MiB
Duration : 27mn 11s
Overall bit rate : 5 265 Kbps
Video
ID : 224 (0xE0)
Format : MPEG Video
Format version : Version 2
Format profile : Main@Main
Format settings, BVOP : Yes
Format settings, Matrix : Default
Format settings, GOP : M=3, N=13
Duration : 27mn 11s
Bit rate mode : Variable
Bit rate : 4 392 Kbps
Nominal bit rate : 8 300 Kbps
Width : 720 pixels
Height : 576 pixels
Display aspect ratio : 16:9
Frame rate : 25.000 fps
Standard : PAL
Color space : YUV
Chroma subsampling : 4:2:0
Bit depth : 8 bits
Scan type : Interlaced
Scan order : Top Field First
Bits/(Pixel*Frame) : 0.424
Stream size : 854 MiB (83%)
Audio #1
ID : 128 (0x80)
Format : AC-3
Format/Info : Audio Coding 3
Mode extension : CM (complete main)
Duration : 27mn 11s
Bit rate mode : Constant
Bit rate : 384 Kbps
Channel(s) : 6 channels
Channel positions : Front: L C R, Side: L R, LFE
Sampling rate : 48.0 KHz
Bit depth : 16 bits
Video delay : -344ms
Stream size : 74.7 MiB (7%)
Audio #2
ID : 129 (0x81)
Format : AC-3
Format/Info : Audio Coding 3
Mode extension : CM (complete main)
Duration : 27mn 11s
Bit rate mode : Constant
Bit rate : 384 Kbps
Channel(s) : 6 channels
Channel positions : Front: L C R, Side: L R, LFE
Sampling rate : 48.0 KHz
Bit depth : 16 bits
Video delay : -344ms
Stream size : 74.7 MiB (7%)
Text
ID : 32 (0x20)
Format : RLE
Format/Info : Run-length encoding
Duration : 27mn 8s
Video delay : 1s 40ms
Menu-General
VTS_03_4
Format : MPEG-PS
File size : 393 MiB
Duration : 9mn 16s
Overall bit rate : 5 926 Kbps
Video
ID : 224 (0xE0)
Format : MPEG Video
Format version : Version 2
Format profile : Main@Main
Format settings, BVOP : Yes
Format settings, Matrix : Default
Format settings, GOP : M=3, N=13
Duration : 9mn 15s
Bit rate mode : Variable
Bit rate : 5 040 Kbps
Nominal bit rate : 8 300 Kbps
Width : 720 pixels
Height : 576 pixels
Display aspect ratio : 16:9
Frame rate : 25.000 fps
Standard : PAL
Color space : YUV
Chroma subsampling : 4:2:0
Bit depth : 8 bits
Scan type : Interlaced
Scan order : Top Field First
Bits/(Pixel*Frame) : 0.486
Stream size : 334 MiB (85%)
Audio #1
ID : 128 (0x80)
Format : AC-3
Format/Info : Audio Coding 3
Mode extension : CM (complete main)
Duration : 9mn 16s
Bit rate mode : Constant
Bit rate : 384 Kbps
Channel(s) : 6 channels
Channel positions : Front: L C R, Side: L R, LFE
Sampling rate : 48.0 KHz
Bit depth : 16 bits
Video delay : -712ms
Stream size : 25.5 MiB (6%)
Audio #2
ID : 129 (0x81)
Format : AC-3
Format/Info : Audio Coding 3
Mode extension : CM (complete main)
Duration : 9mn 16s
Bit rate mode : Constant
Bit rate : 384 Kbps
Channel(s) : 6 channels
Channel positions : Front: L C R, Side: L R, LFE
Sampling rate : 48.0 KHz
Bit depth : 16 bits
Video delay : -712ms
Stream size : 25.5 MiB (6%)
Text
ID : 32 (0x20)
Format : RLE
Format/Info : Run-length encoding
Video delay : 1s 400ms
Menu

Скриншоты

Скриншоты 1-го фильма
- -

_________________
[Торрент-статистика]
[Профиль]  [ЛС] 

vic013

Пол:

Стаж: 4 года 10 месяцев

Сообщений: 7

Репутация: 0 [+] [-]

Откуда: SPb

Пост 04-Ноя-2012 19:42 (спустя 1 месяц 6 дней)

[Цитировать] 

Хотелось бы скачать, но где раздающие (..щий)????
[Торрент-статистика]
[Профиль]  [ЛС] 

Волк

Пол:

Стаж: 5 лет

Сообщений: 689

Репутация: 292 [+] [-]

Откуда: Армения

Пост 04-Ноя-2012 23:12 (спустя 3 часа)

[Цитировать] 

19471Хотелось бы скачать, но где раздающие (..щий)????
На месте вы качайте!!!
[Торрент-статистика]
[Профиль]  [ЛС] 

vic013

Пол:

Стаж: 4 года 10 месяцев

Сообщений: 7

Репутация: 0 [+] [-]

Откуда: SPb

Пост 25-Ноя-2012 17:06 (спустя 20 дней)

[Цитировать] 

19481
19471Хотелось бы скачать, но где раздающие (..щий)????
На месте вы качайте!!!
Прошло больше месяца, скачан 0. Может я не в то время захожу? Могу только вечерами или в выхи...
[Торрент-статистика]
[Профиль]  [ЛС] 

Волк

Пол:

Стаж: 5 лет

Сообщений: 689

Репутация: 292 [+] [-]

Откуда: Армения

Пост 25-Ноя-2012 19:11 (спустя 2 часа 5 минут)

[Цитировать] 

vic013, Перекачайте торрент раздача подет!!!
[Торрент-статистика]
[Профиль]  [ЛС] 

vic013

Пол:

Стаж: 4 года 10 месяцев

Сообщений: 7

Репутация: 0 [+] [-]

Откуда: SPb

Пост 25-Ноя-2012 19:48 (спустя 37 минут)

[Цитировать] 

20197vic013, Перекачайте торрент раздача подет!!!
Спасибо, качается.
[Торрент-статистика]
[Профиль]  [ЛС] 
Показать сообщения:    
Ответить на тему

Текущее время: Сегодня 16:16

Часовой пояс: GMT + 4



Вы не можете начинать темы
Вы не можете отвечать на сообщения
Вы не можете редактировать свои сообщения
Вы не можете удалять свои сообщения
Вы не можете голосовать в опросах
Вы не можете прикреплять файлы к сообщениям
Вы не можете скачивать файлы