Люди в черном 3 / Men in Black III (Барри Зонненфельд / Barry Sonnenfeld) [2012, США, Фантастика, боевик, комедия, приключения, DVD9] R5

Ответить на тему
 
Автор
Сообщение

ArtZak ®

Пол:

Стаж: 5 лет 1 месяц

Сообщений: 3008

Репутация: 1363 [+] [-]

Откуда: Россия

Пост 04-Сен-2012 14:48

[Цитировать] 

Люди в черном 3 / Men in Black III
«Вперёд в прошлое»- Страна: США
Жанр: Фантастика, боевик, комедия, приключения
Год выпуска: 2012
Продолжительность: 01:41:30
Перевод: Профессиональный (дублированный)
Cубтитры: нет
Режиссер: Барри Зонненфельд / Barry Sonnenfeld- -В ролях: Уилл Смит, Джош Бролин, Томми Ли Джонс, Джемейн Клемент, Эмма Томпсон, Майкл Стулбарг, Майк Колтер, Николь Шерзингер, Майкл Чернус, Элис Ив
Описание: Агент Джей узнает, что никакого защитного галактического щита, способного отразить иноземный удар, не существует. Агент Кей не построил его, потому что был убит в 1969 году. Агент Джей должен совершить путешествие во времени, чтобы спасти Землю и жизнь напарника.
Сэмпл: http://multi-up.com/756052
Качество видео: DVD9 R5
Формат видео: MPEG-2
Видео: PAL, 720x576 (16:9), ~8000 Кбит/с (VBR), 25 Кадр/с
Аудио #1: Русский, Dolby AC3, 384 Кбит/с, 48000 Гц, 6 каналов (5.1)
Аудио #2: Английский, Dolby AC3, 448 Кбит/с, 48000 Гц, 6 каналов (5.1)

DVDInfo

Title:
Size: 4.40 Gb ( 4 614 734 KBytes ) - DVD-9
Enabled regions: 1, 2, 3, 4, 5, 6, 7, 8
VTS_01 :
Play Length: 01:41:30
Video: PAL 16:9 (720x576) VBR, Auto Pan&Scan
Audio:
Russian (Dolby AC3, 6 ch)
English (Dolby AC3, 6 ch)
VTS_02 :
Play Length: 00:00:12
Video: NTSC 16:9 (720x480) VBR, Auto Pan&Scan
VTS_03 :
Play Length: 00:00:12
Video: PAL 16:9 (720x576) VBR, Auto Pan&Scan
Audio:
Russian (Dolby AC3, 6 ch)
VTS_04 :
Play Length: 00:00:53+00:02:01+00:02:23
Video: NTSC 16:9 (720x480) CBR, Auto Pan&Scan
Audio:
Russian (Dolby AC3, 2 ch)
Menu Video:
PAL 4:3 (704x576) VBR
Menu English Language Unit :
Root Menu

MediaInfo

General
Complete name : Ljudi.v.chernom.3. DVD.GoliafVIDEO_TSVTS_01_1.VOB
Format : MPEG-PS
File size : 1 000 MiB
Duration : 23mn 13s
Overall bit rate : 6 022 Kbps
Video
ID : 224 (0xE0)
Format : MPEG Video
Format version : Version 2
Format profile : Main@Main
Format settings, BVOP : Yes
Format settings, Matrix : Custom
Duration : 23mn 13s
Bit rate mode : Variable
Bit rate : 5 070 Kbps
Nominal bit rate : 9 800 Kbps
Width : 720 pixels
Height : 576 pixels
Display aspect ratio : 16:9
Frame rate : 25.000 fps
Standard : PAL
Color space : YUV
Chroma subsampling : 4:2:0
Bit depth : 8 bits
Scan type : Progressive
Scan order : Top Field First
Compression mode : Lossy
Bits/(Pixel*Frame) : 0.489
Stream size : 842 MiB (84%)
Audio #1
ID : 189 (0xBD)-128 (0x80)
Format : AC-3
Format/Info : Audio Coding 3
Mode extension : CM (complete main)
Muxing mode : DVD-Video
Duration : 23mn 12s
Bit rate mode : Constant
Bit rate : 384 Kbps
Channel(s) : 6 channels
Channel positions : Front: L C R, Side: L R, LFE
Sampling rate : 48.0 KHz
Bit depth : 16 bits
Compression mode : Lossy
Stream size : 63.8 MiB (6%)
Audio #2
ID : 189 (0xBD)-129 (0x81)
Format : AC-3
Format/Info : Audio Coding 3
Mode extension : CM (complete main)
Muxing mode : DVD-Video
Duration : 23mn 12s
Bit rate mode : Constant
Bit rate : 448 Kbps
Channel(s) : 6 channels
Channel positions : Front: L C R, Side: L R, LFE
Sampling rate : 48.0 KHz
Bit depth : 16 bits
Compression mode : Lossy
Stream size : 74.4 MiB (7%)
Menu

Скриншоты меню

Скриншоты



Последний раз редактировалось: ArtZak (2013-02-04 01:19), всего редактировалось 1 раз
[Торрент-статистика]
[Профиль]  [ЛС] 

Soviet DJ XOMA

Стаж: 4 года 9 месяцев

Сообщений: 18

Репутация: 136 [+] [-]

Пост 21-Сен-2012 14:30 (спустя 16 дней)

[Цитировать] 

Вот вопрос: это реальный DVD 9 или конверт из BD/HD?

_________________
Мы - Soviet DJ's, господа!
[Торрент-статистика]
[Профиль]  [ЛС] 

ArtZak ®

Пол:

Стаж: 5 лет 1 месяц

Сообщений: 3008

Репутация: 1363 [+] [-]

Откуда: Россия

Пост 22-Сен-2012 10:42 (спустя 20 часов)

[Цитировать] 

Soviet DJ XOMA, сомнительная раздача - благо рейтинг не считает.
[Торрент-статистика]
[Профиль]  [ЛС] 

Orion303

Стаж: 4 года 7 месяцев

Сообщений: 7

Репутация: 0 [+] [-]

Откуда: г.Орёл

Пост 23-Сен-2012 12:09 (спустя 1 день 1 час)

[Цитировать] 

Обалденный фильм!!!
[Торрент-статистика]
[Профиль]  [ЛС] 

aleena

Стаж: 3 года 1 месяц

Сообщений: 1

Репутация: 0 [+] [-]

Пост 23-Окт-2013 09:18 (спустя 1 год)

[Цитировать] 

действительно хорошее кино

_________________
Pass4sure www.pass4sure.co.uk
realtests http://realtests.com/
[Торрент-статистика]
[Профиль]  [ЛС] 
Показать сообщения:    
Ответить на тему

Текущее время: Сегодня 16:28

Часовой пояс: GMT + 4



Вы не можете начинать темы
Вы не можете отвечать на сообщения
Вы не можете редактировать свои сообщения
Вы не можете удалять свои сообщения
Вы не можете голосовать в опросах
Вы не можете прикреплять файлы к сообщениям
Вы не можете скачивать файлы