Корабль призрак / Ghost Ship (Стив Бек) [2002 г., Ужасы, триллер, детектив, DVD5]

Ответить на тему
 
Автор
Сообщение

диманыыч ®

Пол:

Стаж: 5 лет

Сообщений: 39

Репутация: 8 [+] [-]

Откуда: Саратов

Пост 16-Фев-2012 10:14

[Цитировать] 

Корабль призрак / Ghost ShipГод выпуска: 2002
Страна: США, Австралия
Жанр: Ужасы, триллер, детектив
Продолжительность: 91 мин. / 01:31
Перевод: Профессиональный (полное дублирование)
Вид субтитров: Вшитые
Язык субтитров: Русский, Английский, Французский, Чешский ,Испанский, Польский, Турецкий.

Премьера (мир): 22 октября 2002, ...
Премьера (РФ): 13 марта 2003, «Каро-Премьер»
Релиз на DVD: 17 марта 2011, «CP-Digital», ...
Режиссер: Стив Бек
В ролях: Гэбриел Бирн
Джулианна Маргулис
Рон Элдард
Десмонд Харрингтон
Исайя Вашингтон
Алекс Димитриадес
Карл Урбан
Эмили Браунинг
Франческа Реттондини
Борис Бркич
...
Роли дублировали:
Владимир Антоник
Алена Ивченко
Всеволод Кузнецов
Денис Беспалый
Сергей Чекан
...
Описание: В отдаленной области Берингова моря команда спасателей обнаруживает останки огромного пассажирского лайнера, который считался погибшим более 40 лет назад. Оказавшись на борту судна, спасатели сталкиваются с жутким прошлым корабля и вынуждены вступить в смертельную схватку…
Доп. информация: Традиционный жанр «морской страшилки», чьё действие происходит на пропавшем сорок лет назад в Атлантике итальянском океанском лайнере, вновь объявившемся уже в Беринговом море, довольно странно дополнен двумя обстоятельствами, которые всё-таки меняют представление о том, что должно быть в мистическом триллере. Девочка-призрак из числа бывших пассажиров этого корабля не только готова помочь, но даже разговаривает с участниками рискованной экспедиции, отправившимися на поиски таинственного судна, чтобы поживиться тем, что удастся там найти. Да и другие давно умершие вступают в беседы с искателями сокровищ, правда, преследуя иную цель — заманить их и привести к смерти. Поскольку (как выясняется) есть глобальный план у некоего «охотника за душами», который хочет завлечь на исчезнувший лайнер, время от времени опять материализующийся, как можно больше людей.
Видеокодек: MPEG-2
Битрейт видео: ~5 605 Kbps
Размер кадра: 720x480
Качество видео: DVD5
Аудио:
№1 AC-3 5.1, 448 Kbps - Английский (оригинальный)
№2 AC-3 5.1, 448 Kbps - Русский (дублированный)

media info 0.7.45

General
Complete name : C:\Users\Admin\Торренты\Корабль призрак\VIDEO_TS\VTS_01_1.VOB
Format : MPEG-PS
File size : 1 024 MiB
Duration : 21mn 35s
Overall bit rate : 6 633 Kbps
Video
ID : 224 (0xE0)
Format : MPEG Video
Format version : Version 2
Format profile : Main@Main
Format settings, BVOP : Yes
Format settings, Matrix : Custom
Format settings, GOP : M=3, N=12
Duration : 21mn 35s
Bit rate mode : Variable
Bit rate : 5 605 Kbps
Nominal bit rate : 7 500 Kbps
Width : 720 pixels
Height : 480 pixels
Display aspect ratio : 16:9
Frame rate : 23.976 fps
Standard : NTSC
Color space : YUV
Chroma subsampling : 4:2:0
Bit depth : 8 bits
Scan type : Progressive
Scan order : 2:3 Pulldown
Compression mode : Lossy
Bits/(Pixel*Frame) : 0.676
Stream size : 865 MiB (85%)
Audio #1
ID : 189 (0xBD)-128 (0x80)
Format : AC-3
Format/Info : Audio Coding 3
Mode extension : CM (complete main)
Muxing mode : DVD-Video
Duration : 21mn 34s
Bit rate mode : Constant
Bit rate : 448 Kbps
Channel(s) : 6 channels
Channel positions : Front: L C R, Side: L R, LFE
Sampling rate : 48.0 KHz
Bit depth : 16 bits
Compression mode : Lossy
Delay relative to video : -83ms
Stream size : 69.2 MiB (7%)
Audio #2
ID : 189 (0xBD)-129 (0x81)
Format : AC-3
Format/Info : Audio Coding 3
Mode extension : CM (complete main)
Muxing mode : DVD-Video
Duration : 21mn 34s
Bit rate mode : Constant
Bit rate : 448 Kbps
Channel(s) : 6 channels
Channel positions : Front: L C R, Side: L R, LFE
Sampling rate : 48.0 KHz
Bit depth : 16 bits
Compression mode : Lossy
Delay relative to video : -83ms
Stream size : 69.2 MiB (7%)
Text #1
ID : 224 (0xE0)-DVD-2
Format : EIA-608
Muxing mode : DVD-Video
Muxing mode, more info : Muxed in Video #1
Stream size : 0.00 Byte (0%)
Text #2
ID : 189 (0xBD)-32 (0x20)
Format : RLE
Format/Info : Run-length encoding
Muxing mode : DVD-Video
Text #3
ID : 189 (0xBD)-33 (0x21)
Format : RLE
Format/Info : Run-length encoding
Muxing mode : DVD-Video
Text #4
ID : 189 (0xBD)-34 (0x22)
Format : RLE
Format/Info : Run-length encoding
Muxing mode : DVD-Video
Text #5
ID : 189 (0xBD)-35 (0x23)
Format : RLE
Format/Info : Run-length encoding
Muxing mode : DVD-Video
Text #6
ID : 189 (0xBD)-36 (0x24)
Format : RLE
Format/Info : Run-length encoding
Muxing mode : DVD-Video
Text #7
ID : 189 (0xBD)-37 (0x25)
Format : RLE
Format/Info : Run-length encoding
Muxing mode : DVD-Video
Text #8
ID : 189 (0xBD)-38 (0x26)
Format : RLE
Format/Info : Run-length encoding
Muxing mode : DVD-Video
Text #9
ID : 189 (0xBD)-39 (0x27)
Format : RLE
Format/Info : Run-length encoding
Muxing mode : DVD-Video
Text #10
ID : 189 (0xBD)-40 (0x28)
Format : RLE
Format/Info : Run-length encoding
Muxing mode : DVD-Video
Text #11
ID : 189 (0xBD)-41 (0x29)
Format : RLE
Format/Info : Run-length encoding
Muxing mode : DVD-Video
Menu

Скриншоты

К сожалению скрины снять не удалось! Выложил другого размера.
Раздача по мере возможности: 24/7Скачал? Нажми "Спасибо"! Напиши комментарий.

_________________


Последний раз редактировалось: диманыыч (2012-02-17 13:37), всего редактировалось 1 раз
[Торрент-статистика]
[Профиль]  [ЛС] 

Волк

Пол:

Стаж: 5 лет

Сообщений: 689

Репутация: 292 [+] [-]

Откуда: Армения

Пост 17-Фев-2012 09:54 (спустя 23 часа)

[Цитировать] 

диманыыч, Скриншоты из jpg в png переделаите.
[Торрент-статистика]
[Профиль]  [ЛС] 

диманыыч ®

Пол:

Стаж: 5 лет

Сообщений: 39

Репутация: 8 [+] [-]

Откуда: Саратов

Пост 17-Фев-2012 13:38 (спустя 3 часа)

[Цитировать] 

Переделал!

_________________
[Торрент-статистика]
[Профиль]  [ЛС] 
Показать сообщения:    
Ответить на тему

Текущее время: Сегодня 12:11

Часовой пояс: GMT + 4



Вы не можете начинать темы
Вы не можете отвечать на сообщения
Вы не можете редактировать свои сообщения
Вы не можете удалять свои сообщения
Вы не можете голосовать в опросах
Вы не можете прикреплять файлы к сообщениям
Вы не можете скачивать файлы