Однажды в Ирландии / The Guard (Джон Майкл МакДона) [2011, триллер, комедия, криминал, DVD5 (сжатый)] R5

Ответить на тему
 
Автор
Сообщение

diim ®

Пол:

Стаж: 1 год 10 месяцев

Сообщений: 1033

Репутация: 112 [+] [-]

Пост 06-Фев-2012 02:57

[Цитировать] 

Однажды в Ирландии / The GuardГод выпуска: 2011
Страна: Ирландия
Жанр: триллер, комедия, криминал
Продолжительность: 01:34:02
Перевод: Авторский (одноголосый) [Goblin]-Режиссер: Джон Майкл МакДона
Сценарий: Джон Майкл МакДона
Продюсер: Крис Кларк, Флора Фернандес-Маренго, Эд Гуене
Оператор: Ларри Смит
Композитор: Калексико
В ролях: Брендан Глисон, Дон Чидл, Марк Стронг, Лиам Каннингэм, Фионнула Флэнаган, Дэвид Уилмот, Катарина Кэс, Рори Кинэн, Доминик МакЭллигот, Сара Грин, Пэт Шорт, Лоуренс Кинлан, Оуэн Шарп, Гари Лайдон, Дэррен Хили, Майкл Ог , Лэйн-Бюджет: $6 000 000
Сборы в мире: $17 652 521-Описание: Женщины, выпивка и веселые шутки - вот радости добродушного ирландского полицейского, сержанта Джерри Бойла. Он никогда не помышлял о геройстве, пока однажды в Дублине не появился агент ФБР, который призвал незадачливого служителя порядка помочь ему накрыть международную банду наркоторговцев. Смогут ли сработаться веселый рыжий ирландец и решительный афроамериканец? Ведь дело, за которое они взялись, окажется таким же непредсказуемым, как и они сами...-
MPAA: -Качество: DVD5 (сжатый)
Формат: DVD Video
Видео: MPEG2; PAL 16:9 (720x576)
Аудио #1: Dolby AC3, 6 ch, 448 Kbps Russian
Аудио #2: Dolby AC3, 6 ch, 448 Kbps English
Субтитры: русские-

DVDInfo

Title: Odnazhdy.v.Irlandii_2011_DVD5
Size: 4.37 Gb ( 4 581 546,00 KBytes ) - DVD-5
Enabled regions: 1, 2, 3, 4, 5, 6, 7, 8
VTS_01 :
Play Length: 00:00:00
Video: PAL 4:3 (720x576) VBR
Subtitles:
English
English
VTS_02 :
Play Length: 00:00:00
Video: PAL 16:9 (720x576) VBR, Auto Letterboxed
Audio:
Not specified (Dolby AC3, 2 ch)
Subtitles:
Not specified
VTS_03 :
Play Length: 00:00:00
Video: PAL 16:9 (720x576) VBR, Auto Letterboxed
Audio:
Not specified (Dolby AC3, 6 ch)
Not specified (Dolby AC3, 6 ch)
Not specified (Dolby AC3, 6 ch)
Subtitles:
Not specified
VTS_04 :
Play Length: 01:34:02
Video: PAL 16:9 (720x576) VBR, Auto Letterboxed
Audio:
Russian (Dolby AC3, 6 ch)
English (Dolby AC3, 6 ch)
Subtitles:
Russian
VTS_05 :
Play Length: 00:00:00
Video: PAL 16:9 (720x576) VBR, Auto Letterboxed
Audio:
Not specified (Dolby AC3, 2 ch)
Subtitles:
Not specified
VTS_06 :
Play Length: 00:00:00
Video: PAL 16:9 (720x576) VBR, Auto Letterboxed
Audio:
Not specified (Dolby AC3, 2 ch)
Subtitles:
Not specified
VTS_07 :
Play Length: 00:00:00
Video: PAL 16:9 (720x576) VBR, Auto Letterboxed
Audio:
Not specified (Dolby AC3, 2 ch)
Subtitles:
Not specified
VTS_08 :
Play Length: 00:00:00
Video: PAL 16:9 (720x576) VBR, Auto Letterboxed
Audio:
Not specified (Dolby AC3, 2 ch)
Subtitles:
Not specified
VTS_09 :
Play Length: 00:00:00
Video: PAL 16:9 (720x576) VBR, Auto Letterboxed
Audio:
Not specified (Dolby AC3, 2 ch)
Subtitles:
Not specified
VTS_10 :
Play Length: 00:00:00
Video: PAL 16:9 (720x576) VBR, Auto Letterboxed
Audio:
Not specified (Dolby AC3, 2 ch)
VTS_11 :
Play Length: 00:00:00
Video: PAL 16:9 (720x576) VBR, Auto Letterboxed
Audio:
Not specified (Dolby AC3, 2 ch)
VTS_12 :
Play Length: 00:00:00
Video: PAL 16:9 (720x576) VBR, Auto Letterboxed
Audio:
Not specified (Dolby AC3, 2 ch)

Mediainfo

Формат : MPEG-PS
Размер файла : 1024 Мбайт
Продолжительность : 20 м.
Режим общего битрейта : Переменный
Общий поток : 6894 Кбит/сек
Видео
Идентификатор : 224 (0xE0)
Формат : MPEG Video
Версия формата : Version 2
Профиль формата : Main@Main
Параметр BVOP формата : Да
Параметр матрицы формата : Выборочная
Продолжительность : 20 м.
Вид битрейта : Переменный
Битрейт : 5861 Кбит/сек
Максимальный битрейт : 8904 Кбит/сек
Ширина : 720 пикселей
Высота : 576 пикселей
Соотношение сторон : 16:9
Частота кадров : 25,000 кадров/сек
Стандарт вещания : PAL
Цветовое пространство : YUV
Субдискретизация насыщенности : 4:2:0
Битовая глубина : 8 бит
Тип развёртки : Прогрессивная
Порядок развёртки : Нижнее поле первое
Метод сжатия : С потерями
Бит/(Пиксели*Кадры) : 0.565
Размер потока : 871 Мбайт (85%)
Аудио #1
Идентификатор : 189 (0xBD)-128 (0x80)
Формат : AC-3
Формат/Информация : Audio Coding 3
Расширение режима : CM (complete main)
Режим смешивания : DVD-Video
Продолжительность : 20 м.
Вид битрейта : Постоянный
Битрейт : 448 Кбит/сек
Каналы : 6 каналов
Расположение каналов : Front: L C R, Side: L R, LFE
Частота : 48,0 КГц
Битовая глубина : 16 бит
Метод сжатия : С потерями
Размер потока : 66,5 Мбайт (6%)
Аудио #2
Идентификатор : 189 (0xBD)-129 (0x81)
Формат : AC-3
Формат/Информация : Audio Coding 3
Расширение режима : CM (complete main)
Режим смешивания : DVD-Video
Продолжительность : 20 м.
Вид битрейта : Постоянный
Битрейт : 448 Кбит/сек
Каналы : 6 каналов
Расположение каналов : Front: L C R, Side: L R, LFE
Частота : 48,0 КГц
Битовая глубина : 16 бит
Метод сжатия : С потерями
Размер потока : 66,5 Мбайт (6%)
Текст
Идентификатор : 189 (0xBD)-32 (0x20)
Формат : RLE
Формат/Информация : Run-length encoding
Режим смешивания : DVD-Video

Скриншоты

Меню

[Торрент-статистика]
[Профиль]  [ЛС] 

seregaff

Стаж: 4 года 8 месяцев

Сообщений: 1

Репутация: 0 [+] [-]

Пост 20-Апр-2012 05:37 (спустя 2 месяца 14 дней)

[Цитировать] 

А кто в этом кино наш? Или трекер Ирландский?
[Торрент-статистика]
[Профиль]  [ЛС] 

Пост 20-Апр-2012 09:17 (спустя 3 часа)

Топик был перенесен из форума Наше кино (Rip) в форум Зарубежное кино (DVD Video)

Волк
 
Показать сообщения:    
Ответить на тему

Текущее время: Сегодня 00:29

Часовой пояс: GMT + 4



Вы не можете начинать темы
Вы не можете отвечать на сообщения
Вы не можете редактировать свои сообщения
Вы не можете удалять свои сообщения
Вы не можете голосовать в опросах
Вы не можете прикреплять файлы к сообщениям
Вы не можете скачивать файлы