Семь дней на Земле / Meant to Be (Пол Брюлс / Paul Breuls) [2010, Бельгия, мелодрама, комедия, DVD9] R5 «New Dream media»

Ответить на тему
 
Автор
Сообщение

diim ®

Пол:

Стаж: 1 год 10 месяцев

Сообщений: 1033

Репутация: 112 [+] [-]

Пост 01-Фев-2012 13:53

[Цитировать] 

Семь дней на Земле / Meant to Be-Год выпуска: 2010
Страна: Бельгия (Corrino Media Corporation, Corsan)
Слоган: «this angel is about to fall...head over heels»
Жанр: мелодрама, комедия
Продолжительность: 01:42:27
Перевод: Профессиональный (многоголосый закадровый) + Оригинальная звуковая дорожка
Субтитры: Нет--Режиссёр: Пол Брюлс / Paul Breuls
Сценарист: Кара Холден
Продюсер: Пол Брюлс, Catherine Vandeleene, Майкл Джон Федун
Оператор: Хулио Макат-В ролях: Келли Райлли, Джулиан Райнд-Татт, Сантьяго Кабрера, Миа Маэстро, Крис Маршалл, Мариса Альварес, Леонардо Кастро--Описание: Когда Уилл, симпатичный, вечно юный ангел-хранитель, узнает, что ему больше не нужно охранять красавицу-Аманду, женщину, которую он оберегал целых десять лет, он внезапно открывает в себе странное чувство… Чувство, которое не позволяет забыть о ней ни на секунду, но которое ангелам испытывать не положено.
И это чувство — любовь! К разочарованию своего лучшего друга, и отчаянно надеясь не быть пойманным «Боссом», Уилл приступает к новому заданию — завоевать сердце Аманды! Только одна проблема, Уилл знает девушку даже слишком хорошо, но ведь он для нее — совершенно незнакомый человек…--Мировая премьера: 24 апреля 2010
Бюджет: €6 000 000-- -Качество: DVD9 R5
Формат: DVD Video
Видео кодек: MPEG2
Аудио кодек: AC3 (Dolby Digital)
Видео: PAL 16:9 (720x576(0.779)) MPEG Video, 25,000 кадр/сек, 8078 Кбит/сек
Аудио #1: Russian (Dolby AC3, 6 ch) 256 Кбит/сек, 48,0 КГц [Профессиональный (многоголосый закадровый)]
Аудио #2: English (Dolby AC3, 6 ch) 256 Кбит/сек, 48,0 КГц [Оригинальная звуковая дорожка]
Субтитры: Нет

DVDInfo

Title:
Size: 6.30 Gb ( 6 610 094 KBytes ) - DVD-9
Enabled regions: 1, 2, 3, 4, 5, 6, 7, 8
VTS_01 :
Play Length: 00:00:11
Video: PAL 16:9 (720x576) VBR, Auto Pan&Scan, Auto Letterboxed
VTS_02 :
Play Length: 01:42:27
Video: PAL 16:9 (720x576) VBR, Auto Pan&Scan, Auto Letterboxed
Audio:
Not specified (Dolby AC3, 6 ch)
Not specified (Dolby AC3, 6 ch)
Menu Video:
PAL 16:9 (720x576) VBR
Auto Pan&Scan, Auto Letterboxed
Menu Russian Language Unit :
Root Menu

MediaInfo

Общее
Полное имя : G:\Новинки 2012\7.dnej.na.zemle.2010.DVD9\VIDEO_TS\VTS_02_1.VOB
Формат : MPEG-PS
Размер файла : 1024 Мбайт
Продолжительность : 16 м.
Режим общего битрейта : Переменный
Общий поток : 8765 Кбит/сек
Видео
Идентификатор : 224 (0xE0)
Формат : MPEG Video
Версия формата : Version 2
Профиль формата : Main@Main
Параметр BVOP формата : Да
Параметр матрицы формата : Выборочная
Параметр GOP формата : M=3, N=15
Продолжительность : 16 м.
Вид битрейта : Переменный
Битрейт : 8078 Кбит/сек
Максимальный битрейт : 9000 Кбит/сек
Ширина : 720 пикселей
Высота : 576 пикселей
Соотношение сторон : 16:9
Частота кадров : 25,000 кадров/сек
Стандарт вещания : PAL
Цветовое пространство : YUV
Субдискретизация насыщенности : 4:2:0
Битовая глубина : 8 бит
Тип развёртки : Чересстрочная
Порядок развёртки : Верхнее поле первое
Метод сжатия : С потерями
Бит/(Пиксели*Кадры) : 0.779
Размер потока : 944 Мбайт (92%)
Аудио #1
Идентификатор : 189 (0xBD)-128 (0x80)
Формат : AC-3
Формат/Информация : Audio Coding 3
Расширение режима : CM (complete main)
Режим смешивания : DVD-Video
Продолжительность : 16 м.
Вид битрейта : Постоянный
Битрейт : 256 Кбит/сек
Каналы : 6 каналов
Расположение каналов : Front: L C R, Side: L R, LFE
Частота : 48,0 КГц
Битовая глубина : 16 бит
Метод сжатия : С потерями
Размер потока : 29,9 Мбайт (3%)
Аудио #2
Идентификатор : 189 (0xBD)-129 (0x81)
Формат : AC-3
Формат/Информация : Audio Coding 3
Расширение режима : CM (complete main)
Режим смешивания : DVD-Video
Продолжительность : 16 м.
Вид битрейта : Постоянный
Битрейт : 256 Кбит/сек
Каналы : 6 каналов
Расположение каналов : Front: L C R, Side: L R, LFE
Частота : 48,0 КГц
Битовая глубина : 16 бит
Метод сжатия : С потерями
Размер потока : 29,9 Мбайт (3%)

Скриншоты

Cкриншоты меню

[Торрент-статистика]
[Профиль]  [ЛС] 
Показать сообщения:    
Ответить на тему

Текущее время: Сегодня 22:08

Часовой пояс: GMT + 4



Вы не можете начинать темы
Вы не можете отвечать на сообщения
Вы не можете редактировать свои сообщения
Вы не можете удалять свои сообщения
Вы не можете голосовать в опросах
Вы не можете прикреплять файлы к сообщениям
Вы не можете скачивать файлы