Анжелика, маркиза ангелов / Angelique, marquise des anges (Ариэль Зейтун / Ariel Zeitoun) [2013 г., мелодрама, приключения, DVD9] Dub [Лицензия] + Original (FRE) + Sub (RUS)

Ответить на тему
 
Автор
Сообщение

TiZAr ®

Пол:

Стаж: 3 года 3 месяца

Сообщений: 836

Репутация: 1157 [+] [-]

Откуда: Россия

Пост 27-Фев-2014 06:03

[Цитировать] 

Анжелика, маркиза ангелов / Angelique, marquise des anges- Год выпуска: 2013
Страна: Франция
Жанр: мелодрама, приключения
Продолжительность: 01:48:06
Перевод: Профессиональный (полное дублирование)
Качество перевода: Лицензия
Cубтитры: русские
Меню: анимированное
Доп. материалы: Интервью
Оригинальная аудиодорожка: французская
Режиссер: Ариэль Зейтун / Ariel Zeitoun- -В ролях:
Нора Арнезедер, Жерар Ланвен, Томер Сисле, Симон Абкарян, Давид Кросс, Мэтью Бужена, Мигель Херц-Кестранек, Юлиан Вайгенд, Райнер Фриб, Флоренс Косте и др.
Описание:
Франция XVII века. Юную красавицу Анжелику выдают замуж за графа де Пейрака, обладающего огромным состоянием и слывущего «колдуном». Поначалу Анжелика ненавидит мужа, но постепенно начинает понимать, что за суровой внешностью скрывается обаятельным, добрый, чуткий и справедливый мужчина. Между супругами вспыхивает настоящая любовь, но идиллия оказывается недолгой.
Короля Людовика XIV, проездом посетившего замок Де Пейрака, начинает терзать зависть к семейному счастью и богатству своего подданного. Де Пейрак заточен в Бастилию и ждет казни. Но Анжелика готова биться за свою любовь до последнего вздоха. Но помощь энергичной и независимой красавице приходит давно влюбленный в нее Николя — предводитель парижских разбойников.
Релиз группы:

Тип релиза: DVD9 R5 | Сэмпл
Контейнер: DVD Video
Видео: PAL 16x9 (720х576@1024x576) VBR, 5600 kbps, Auto Pan&Scan, Auto Letterboxed
Аудио #1: 48 kHz, Dolby AC3, 6 ch, 256 kbps - русский
Аудио #2: 48 kHz, DTS, 6 ch, 768 kbps - русский
Аудио #3: 48 kHz, Dolby AC3, 6 ch, 256 kbps - французский

MI

Код:
General
Complete name                            : VTS_03_1.VOB
Format                                   : MPEG-PS
File size                                : 1 024 MiB
Duration                                 : 20mn 45s
Overall bit rate mode                    : Variable
Overall bit rate                         : 6 899 Kbps
Video
ID                                       : 224 (0xE0)
Format                                   : MPEG Video
Format version                           : Version 2
Format profile                           : Main@Main
Format settings, BVOP                    : Yes
Format settings, Matrix                  : Custom
Format settings, GOP                     : M=3, N=15
Duration                                 : 20mn 45s
Bit rate mode                            : Variable
Bit rate                                 : 5 495 Kbps
Maximum bit rate                         : 8 300 Kbps
Width                                    : 720 pixels
Height                                   : 576 pixels
Display aspect ratio                     : 16:9
Frame rate                               : 25.000 fps
Standard                                 : PAL
Color space                              : YUV
Chroma subsampling                       : 4:2:0
Bit depth                                : 8 bits
Scan type                                : Interlaced
Scan order                               : Top Field First
Compression mode                         : Lossy
Bits/(Pixel*Frame)                       : 0.530
Time code of first frame                 : 00:00:00:00
Time code source                         : Group of pictures header
Stream size                              : 816 MiB (80%)
Audio #1
ID                                       : 189 (0xBD)-128 (0x80)
Format                                   : AC-3
Format/Info                              : Audio Coding 3
Mode extension                           : CM (complete main)
Format settings, Endianness              : Big
Muxing mode                              : DVD-Video
Duration                                 : 20mn 44s
Bit rate mode                            : Constant
Bit rate                                 : 256 Kbps
Channel count                            : 6 channels
Channel positions                        : Front: L C R, Side: L R, LFE
Sampling rate                            : 48.0 KHz
Bit depth                                : 16 bits
Compression mode                         : Lossy
Stream size                              : 38.0 MiB (4%)
Audio #2
ID                                       : 189 (0xBD)-130 (0x82)
Format                                   : AC-3
Format/Info                              : Audio Coding 3
Mode extension                           : CM (complete main)
Format settings, Endianness              : Big
Muxing mode                              : DVD-Video
Duration                                 : 20mn 44s
Bit rate mode                            : Constant
Bit rate                                 : 256 Kbps
Channel count                            : 6 channels
Channel positions                        : Front: L C R, Side: L R, LFE
Sampling rate                            : 48.0 KHz
Bit depth                                : 16 bits
Compression mode                         : Lossy
Stream size                              : 38.0 MiB (4%)
Audio #3
ID                                       : 189 (0xBD)-137 (0x89)
Format                                   : DTS
Format/Info                              : Digital Theater Systems
Mode                                     : 16
Format settings, Endianness              : Big
Muxing mode                              : DVD-Video
Duration                                 : 20mn 44s
Bit rate mode                            : Constant
Bit rate                                 : 755 Kbps
Channel count                            : 6 channels
Channel positions                        : Front: L C R, Side: L R, LFE
Sampling rate                            : 48.0 KHz
Bit depth                                : 16 bits
Compression mode                         : Lossy
Stream size                              : 112 MiB (11%)
Text
ID                                       : 189 (0xBD)-45 (0x2D)
Format                                   : RLE
Format/Info                              : Run-length encoding
Muxing mode                              : DVD-Video
Menu

DVDInfo

Код:
Title: Angelika.markiza.angelov.2013.D.DVD9
Size: 6.46 Gb ( 6 777 762,00 KBytes ) - DVD-9
Enabled regions: 1, 2, 3, 4, 5, 6, 7, 8
VTS_01 :
  Play Length: 00:00:10
  Video: PAL 16:9 (720x576) VBR, Auto Pan&Scan, Auto Letterboxed
VTS_02 :
  Play Length: 00:00:06
  Video: PAL 16:9 (720x576) VBR, Auto Pan&Scan, Auto Letterboxed
VTS_03 :
  Play Length: 01:48:06
  Video: PAL 16:9 (720x576) VBR, Auto Pan&Scan, Auto Letterboxed
  Audio:
      Not specified (Dolby AC3, 6 ch)
      Not specified (DTS, 6 ch)
      Not specified (Dolby AC3, 6 ch)
  Subtitles:
      Not specified
      Not specified
      Not specified
      Not specified
      Not specified
      Not specified
      Not specified
      Not specified
      Not specified
      Not specified
      Not specified
      Not specified
      Not specified
      Not specified
VTS_04 :
  Play Length: 00:00:05
  Video: PAL 16:9 (720x576) VBR, Auto Pan&Scan, Auto Letterboxed
  Audio:
      Not specified (Dolby AC3, 6 ch)
      Not specified (Dolby AC3, 6 ch)
      Not specified (Dolby AC3, 6 ch)
  Subtitles:
      Not specified
      Not specified
      Not specified
VTS_05 :
  Play Length: 00:29:13
  Video: PAL 16:9 (720x576) VBR, Auto Pan&Scan, Auto Letterboxed
  Audio:
      Not specified (Dolby AC3, 2 ch)
      Not specified (Dolby AC3, 2 ch)
      Not specified (Dolby AC3, 2 ch)
  Subtitles:
      Not specified
      Not specified
      Not specified
* Menus Information *
VIDEO_TS Menu
Video:
      PAL 16:9 (720x576) VBR
      Auto Pan&Scan, Auto Letterboxed
English Language Unit :
      Title Menu
VTS_01 Menu
Video:
      PAL 16:9 (720x576) VBR
      Auto Pan&Scan, Auto Letterboxed
Audio:
      Not specified (Dolby AC3, 6 ch)
English Language Unit :
      Root Menu
VTS_02 Menu
Video:
      PAL 4:3 (720x576) VBR
English Language Unit :
      Root Menu
VTS_03 Menu
Video:
      PAL 4:3 (720x576) VBR
English Language Unit :
      Root Menu
VTS_04 Menu
Video:
      PAL 4:3 (720x576) VBR
English Language Unit :
      Root Menu
VTS_05 Menu
Video:
      PAL 4:3 (720x576) VBR
English Language Unit :
      Root Menu

Скриншоты меню

Скриншоты (анаморф)



_________________
Не стоит обращать внимания на отсутствие сидов на моих раздачах. Все мои релизы мультитрекерные - нет сидов, включите DHT.
За релизами в HD качестве обращайтесь в личку, либо отписывайтесь в теме.
[Торрент-статистика]
[Профиль]  [ЛС] 
Показать сообщения:    
Ответить на тему

Текущее время: Сегодня 00:21

Часовой пояс: GMT + 4



Вы не можете начинать темы
Вы не можете отвечать на сообщения
Вы не можете редактировать свои сообщения
Вы не можете удалять свои сообщения
Вы не можете голосовать в опросах
Вы не можете прикреплять файлы к сообщениям
Вы не можете скачивать файлы