Легенда о Джабберуоке / Jabberwock (Стивен Р. Монро / Steven R. Monroe) [2011, США, Канада, фэнтези, боевик, приключения, DVD9] R5 «Вольга»

Ответить на тему
 
Автор
Сообщение

diim ®

Пол:

Стаж: 1 год 10 месяцев

Сообщений: 1033

Репутация: 112 [+] [-]

Пост 23-Дек-2011 02:06

[Цитировать] 

Легенда о Джабберуоке / Jabberwock-Год выпуска: 2011
Страна: США, Канада (American World Pictures, Bron Studios)
Жанр: фэнтези, боевик, приключения
Продолжительность: 01:23:48
Перевод: Профессиональный (многоголосый закадровый) + Оригинальная звуковая дорожка
Субтитры: Нет--Режиссёр: Стивен Р. Монро / Steven R. Monroe
Сценарист: Рауль Инглис, Рафаэль Джордан
Продюсер: Дэна Дубовский, Аарон Л. Гилберт, Марк Л. Лестер
Оператор: Антон Бакарски
Композитор: Кори А. Джексон-В ролях: Тамо Пеникетт, Майкл Ворф, Кейси Барнфилд, Раффаэлло Дегруттола, Йен Вирго, Стивен Вэддингтон, Христо Митцков, Виолета Марковска, Ричард Ридделл, Хью Росс...--Описание: Храбрый и пылкий рыцарь Алек возвращается в родные края, где его ждут старик-отец и брат. Но спокойно провести время с семьей воину не удается. Его новым противником становится обосновавшееся неподалеку гигантское крылатое чудовищес телом дракона, острыми когтями и головой отвратительного насекомого. Быстро становится ясно, что в одиночку с монстром не справиться. На защиту родных и любимых поднимается весь город. Но смогут ли люди победить древнее зло?--Доп.информация: Смотрите на DVD-Мировая премьера: 10 сентября 2011-- -Качество: DVD9 R5
Формат: DVD Video
Видео кодек: MPEG2
Аудио кодек: AC3 (Dolby Digital)
Видео: PAL 16:9 (720x576(0.810)) MPEG Video, 25,000 кадр/сек, 8402 Кбит/сек
Аудио #1: Russian (Dolby AC3, 6 ch) 448 Кбит/сек, 48,0 КГц [Профессиональный (многоголосый закадровый)]
Аудио #2: English (Dolby AC3, 6 ch) 448 Кбит/сек, 48,0 КГц [Оригинальная звуковая дорожка]
Субтитры: Нет-

DVDInfo

Title:
Size: 6.43 Gb ( 6 737 162,00 KBytes ) - DVD-9
Enabled regions: 1, 2, 3, 4, 5, 6, 8
VTS_01 :
Play Length: 00:00:10
Video: PAL 16:9 (720x576) VBR, Auto Pan&Scan, Auto Letterboxed
VTS_02 :
Play Length: 00:00:06
Video: PAL 16:9 (720x576) VBR, Auto Pan&Scan, Auto Letterboxed
VTS_03 :
Play Length: 01:23:48
Video: PAL 16:9 (720x576) VBR, Auto Pan&Scan, Auto Letterboxed
Audio:
Russian (Dolby AC3, 6 ch)
English (Dolby AC3, 6 ch)
VTS_04 :
Play Length: 00:01:37
Video: PAL 16:9 (720x576) VBR, Auto Pan&Scan, Auto Letterboxed
Audio:
Not specified (Dolby AC3, 2 ch)
Not specified (Dolby AC3, 2 ch)
VTS_05 :
Play Length: 00:02:00
Video: PAL 16:9 (720x576) VBR, Auto Pan&Scan, Auto Letterboxed
Audio:
Not specified (Dolby AC3, 2 ch)
Not specified (Dolby AC3, 2 ch)
VTS_06 :
Play Length: 00:02:06
Video: PAL 16:9 (720x576) VBR, Auto Pan&Scan, Auto Letterboxed
Audio:
Not specified (Dolby AC3, 2 ch)
Not specified (Dolby AC3, 2 ch)
VTS_07 :
Play Length: 00:02:30
Video: PAL 16:9 (720x576) VBR, Auto Pan&Scan, Auto Letterboxed
Audio:
Not specified (Dolby AC3, 2 ch)
Not specified (Dolby AC3, 2 ch)
VTS_08 :
Play Length: 00:02:03
Video: PAL 16:9 (720x576) VBR, Auto Pan&Scan, Auto Letterboxed
Audio:
Not specified (Dolby AC3, 2 ch)
Not specified (Dolby AC3, 2 ch)

MediaInfo

Общее
Полное имя : G:\Новинки 2011\Legenda.o.Dzhabberuoke.2011.DVD9\VIDEO_TS\VTS_03_2.VOB
Формат : MPEG-PS
Размер файла : 1024 Мбайт
Продолжительность : 15 м.
Общий поток : 9487 Кбит/сек
Видео
Идентификатор : 224 (0xE0)
Формат : MPEG Video
Версия формата : Version 2
Профиль формата : Main@Main
Параметр BVOP формата : Да
Параметр матрицы формата : Выборочная
Продолжительность : 15 м.
Вид битрейта : Переменный
Битрейт : 8402 Кбит/сек
Максимальный битрейт : 8800 Кбит/сек
Ширина : 720 пикселей
Высота : 576 пикселей
Соотношение сторон : 16:9
Частота кадров : 25,000 кадров/сек
Стандарт вещания : PAL
Цветовое пространство : YUV
Субдискретизация насыщенности : 4:2:0
Битовая глубина : 8 бит
Тип развёртки : Чересстрочная
Порядок развёртки : Верхнее поле первое
Метод сжатия : С потерями
Бит/(Пиксели*Кадры) : 0.810
Размер потока : 906 Мбайт (89%)
Аудио #1
Идентификатор : 189 (0xBD)-128 (0x80)
Формат : AC-3
Формат/Информация : Audio Coding 3
Расширение режима : CM (complete main)
Режим смешивания : DVD-Video
Продолжительность : 15 м.
Вид битрейта : Постоянный
Битрейт : 448 Кбит/сек
Каналы : 6 каналов
Расположение каналов : Front: L C R, Side: L R, LFE
Частота : 48,0 КГц
Битовая глубина : 16 бит
Метод сжатия : С потерями
Задержка видео : -744 мс.
Размер потока : 48,3 Мбайт (5%)
Аудио #2
Идентификатор : 189 (0xBD)-129 (0x81)
Формат : AC-3
Формат/Информация : Audio Coding 3
Расширение режима : CM (complete main)
Режим смешивания : DVD-Video
Продолжительность : 15 м.
Вид битрейта : Постоянный
Битрейт : 448 Кбит/сек
Каналы : 6 каналов
Расположение каналов : Front: L C R, Side: L R, LFE
Частота : 48,0 КГц
Битовая глубина : 16 бит
Метод сжатия : С потерями
Задержка видео : -744 мс.
Размер потока : 48,3 Мбайт (5%)

Скриншоты

Скриншоты меню











[Торрент-статистика]
[Профиль]  [ЛС] 
Показать сообщения:    
Ответить на тему

Текущее время: Сегодня 12:08

Часовой пояс: GMT + 4



Вы не можете начинать темы
Вы не можете отвечать на сообщения
Вы не можете редактировать свои сообщения
Вы не можете удалять свои сообщения
Вы не можете голосовать в опросах
Вы не можете прикреплять файлы к сообщениям
Вы не можете скачивать файлы