Приют / El Orfanato (Хуан Антонио Байона) [2007 г., ужасы, триллер, драма, мистика, BDRip]

Ответить на тему
 
Автор
Сообщение

3232fox ®

Пол:

Стаж: 5 лет 9 месяцев

Сообщений: 605

Репутация: 424 [+] [-]

Откуда: Крым,Россия

Пост 29-Ноя-2013 01:04

[Цитировать] 

-Приют / El Orfanato--Год выпуска: 2007
Страна: Испания, Мексика
Жанр: ужасы, триллер, драма, мистика
Продолжительность: ~01:45:33
Субтитры: Русские, английские (внешние *.srt)
Перевод: Профессиональный (полное дублирование)--Режиссер: Хуан Антонио Байона--В ролях: Белен Руэда, Фернандо Кайо, Мэйбл Ривера, Эдгар Вивар, Оскар Касас, Алехандро Кампос, Кармен Лопез, Оскар Лара, Джеральдин Чаплин, Бланка Мартинез--Описание: Самые счастливые годы Лаура провела в сиротском приюте на побережье. Любимые воспитатели заменили ей родителей, а друзья — братьев и сестер. Через тридцать лет Лаура возвращается в дом своего детства с мужем и семилетним сыном. Она мечтает восстановить его и открыть для новых маленьких посетителей. Однако героиню поразили перемены, произошедшие с ее собственным сыном.
Из милого мальчика он превратился в маленького монстра с жестокими фантазиями и опасными играми. Она уверена, что во всем виноват старый дом, таящий скрытую угрозу. Постепенно картины прошлого всплывают в памяти Лауры и открывают ей страшную истину….
-- --Тип релиза: BDRip
Контейнер: AVI
Видео кодек: XviD
Аудио кодек: AC3 (Dolby Digital)
Видео: 720x304 (2.37:1), 23.976 fps, XviD build 63 ~2185 kbps avg, 0.42 bit/pixel
Аудио: #1: 48 kHz, AC3 Dolby Digital, 3/2 (L,C,R,l,r) + LFE ch, ~384.00 kbps avg
Аудио #2: 48 kHz, AC3 Dolby Digital, 3/2 (L,C,R,l,r) + LFE ch, ~384.00 kbps avg
Аудио #3: 48 kHz, AC3 Dolby Digital, 3/2 (L,C,R,l,r) + LFE ch, ~384.00 kbps avg |AVO|--

Скриншоты

MI

G:\видео\Priyut.2007.DUAL.BDRip.XviD.AC3.-HQCLUB.avi
General
Complete name : G:\видео\Priyut.2007.DUAL.BDRip.XviD.AC3.-HQCLUB.avi
Format : AVI
Format/Info : Audio Video Interleave
File size : 2.18 GiB
Duration : 1h 45mn
Overall bit rate : 2 960 Kbps
Movie name : Приют / The Orphanage / El Orfanato (2007) BDRip
Director : Orbit
Writing application : VirtualDubMod 1.5.10.2 (build 2542/release)
Copyright : hqclub.net
Comment : 21.05.2011
Video #0
ID : 0
Format : MPEG-4 Visual
Format profile : Advanced Simple@L5
Format settings, BVOP : Yes
Format settings, QPel : No
Format settings, GMC : No warppoints
Format settings, Matrix : Custom
Codec ID : XVID
Codec ID/Hint : XviD
Duration : 1h 45mn
Bit rate : 2 064 Kbps
Width : 720 pixels
Height : 304 pixels
Display aspect ratio : 2.35:1
Frame rate : 23.976 fps
Resolution : 8 bits
Colorimetry : 4:2:0
Scan type : Progressive
Bits/(Pixel*Frame) : 0.393
Stream size : 1.52 GiB (70%)
Writing library : XviD 63
Audio #1
ID : 1
Format : AC-3
Format/Info : Audio Coding 3
Format_Settings_ModeExtension : CM (complete main)
Codec ID : 2000
Duration : 1h 45mn
Bit rate mode : Constant
Bit rate : 384 Kbps
Channel(s) : 6 channels
Channel positions : Front: L C R, Side: L R, LFE
Sampling rate : 48.0 KHz
Stream size : 290 MiB (13%)
Alignment : Split accross interleaves
Audio #2
ID : 2
Format : AC-3
Format/Info : Audio Coding 3
Format_Settings_ModeExtension : CM (complete main)
Codec ID : 2000
Duration : 1h 45mn
Bit rate mode : Constant
Bit rate : 384 Kbps
Channel(s) : 6 channels
Channel positions : Front: L C R, Side: L R, LFE
Sampling rate : 48.0 KHz
Stream size : 290 MiB (13%)
Alignment : Split accross interleaves
[Торрент-статистика]
[Профиль]  [ЛС] 
Показать сообщения:    
Ответить на тему

Текущее время: Сегодня 18:41

Часовой пояс: GMT + 4



Вы не можете начинать темы
Вы не можете отвечать на сообщения
Вы не можете редактировать свои сообщения
Вы не можете удалять свои сообщения
Вы не можете голосовать в опросах
Вы не можете прикреплять файлы к сообщениям
Вы не можете скачивать файлы