Придурки из Хаззарда / The Dukes of Hazzard (Джей Чандрашекхар) [2005, Комедия, приключения, HQRip-AVC]

Ответить на тему
 
Автор
Сообщение

diim ®

Пол:

Стаж: 3 года 5 месяцев

Сообщений: 1035

Репутация: 112 [+] [-]

Пост 08-Дек-2011 13:26

[Цитировать] 

Придурки из Хаззарда / The Dukes of HazzardГод выпуска: 2005
Страна: США, Австралия
Слоган: «Газ до отказа!»
Жанр: Комедия, приключения
Продолжительность: 01:46:56
Перевод: Профессиональный (двухголосый закадровый) + Оригинальная звуковая дорожка
Субтитры: Английские-Режиссёр: Джей Чандрашекхар
Сценарист: Джон О’Брайэн, Джонатан Дэвис, Гай Валдрон
Продюсер: Билл Гербер, Брюс Берман, Дэна Голдберг
Оператор: Лоуренс Шер
Композитор: Нэтан Барр
В ролях: Шон Уильям Скотт, Джонни Ноксвилл, Джессика Симпсон, Берт Рейнолдс, Уилли Нелсон, Дэвид Кехнер, Ричи Монтгомери, Линда Картер, М.С. Гейни, Кевин Хеффернан, Майкл Руф, Майкл Уэстон, Джим Коуди Уильямс-Описание: Действие сюжета разворачивается в наши дни и закручено вокруг приключений закадычных двоюродных братьев Бо и Люка Дьюков, которым благодаря своей неотразимой кузине Дэйзи и контрабандисту-самогонщику дяде Джессу удается спасти семейную ферму от полного уничтожения коррумпированным комиссаром округа Хаззард Боссом Хоггом.
Вступив в противоборство с местными властями, герои постоянно от них ускользают самыми замысловатыми способами, гоняя по округу на своем знаменитом оранжевом «додже» 1969 года выпуска, получившем прозвище «Генерал Ли»…-Рейтинг MPAA: Рейтинг PG-13 (Дети до 13 лет допускаются на фильм только с родителями)
Мировая премьера: 27 июля 2005
Премьера в России: 13 октября 2005
Бюджет: $50 000 000
Кассовые сборы: $110 603 876-Качество: HQRip-AVC
Формат: MKV
Видео кодек: AVC
Аудио кодек: AC3
Видео: 1136x472 @ 23.976fps; ~2999Kbps
Аудио #1: 6Ch; 48KHz; 16Bit; ~448Kbps [Профессиональный (двухголосый закадровый)]
Аудио #2: 6Ch; 48KHz; 16Bit; ~448Kbps [Оригинальная звуковая дорожка]
Субтитры: Английские-

Скриншоты










Знаете ли Вы, что...

В борьбе за роль Дэйзи Дьюк Джессика Симпсон умудрилась обставить видных конкуренток в лице Бритни Спирз, Мэнди Мур и Джессики Бил.
На роли братьев Дюков пробовались Пол Уокер и Эштон Кетчер. Энтони Андерсон мог получить роль Босса Хогга.
Актрисе Долли Партон предлагалась роль матери семейства, но не сложилось.
Данная картина является очередной попыткой вернуть к жизни давно забытый френчайз. В 1979 году был запущен одноименный сериал, и спустя ровно 26 лет с момента начала съемок первого эпизода под названием «Однорукие бандиты», 8 ноября 2004 была начата работа над полнометражной картиной.
Основная часть трюков и эффектных сцен с участием каскадеров была отснята на территории Сельскохозяйственной исследовательской станции в Луизиане. Станция была арендована представителями компании «Warner Bros.» до окончания работы над картиной.
В ходе съемок была задействована одна из машин, использованная при работе над созданием некоторых эпизодов оригинального сериала. Разумеется, двигатель был заменен на более мощный.
В 2005 году, незадолго до выхода картины в прокат, представители компании «Warner Bros.» получили судебный иск по поводу нарушения авторских прав. Дело в том, что еще в 1979 году продюсер Роберт Кларк продал права на использование материалов картины «Лунные гонщики», которая и легла в основу сюжета сериала.
Недовольство адвокатов Кларка заключалось в том, что права были проданы лишь на телевизионные эфиры, а о полнометражном фильме, ориентированном на выпуск в кинотеатрах, речи в данном соглашении не велось. Данная акция была направлена на то, чтобы задержать выход кинокартины в свет, однако судебный иск так и остался неудовлетворенным.

MediaInfo

General
Unique ID : 176321204472469606500462964448138764686 (0x84A63A8F84590D4FA2A2F1D71602218E)
Complete name : The Dukes Of Hazzard.2005.mkv
Format : Matroska
Format version : Version 2
File size : 2.91 GiB
Duration : 1h 46mn
Overall bit rate : 3 897 Kbps
Movie name : Придурки из Хаззарда / The Dukes of Hazzard (2005) [Джей Чэндрасекар / Jay Chandrasekhar] HDDVDRip bybumbarelo@tRuAVC
Encoded date : UTC 2011-06-09 14:21:07
Writing application : mkvmerge v4.8.0 ('I Got The...') built on May 24 2011 03:12:58
Writing library : libebml v1.2.0 + libmatroska v1.1.0
Attachment : Yes / Yes
Video
ID : 1
Format : AVC
Format/Info : Advanced Video Codec
Format profile : High@L4.0
Format settings, CABAC : Yes
Format settings, ReFrames : 11 frames
Codec ID : V_MPEG4/ISO/AVC
Duration : 1h 46mn
Bit rate : 3 000 Kbps
Width : 1 136 pixels
Height : 472 pixels
Display aspect ratio : 2.40:1
Frame rate : 23.976 fps
Color space : YUV
Chroma subsampling : 4:2:0
Bit depth : 8 bits
Scan type : Progressive
Bits/(Pixel*Frame) : 0.233
Stream size : 2.18 GiB (75%)
Title : AVC; 1136x472 @ 23.976fps; ~2999Kbps
Writing library : x264 core 115 r1995kMod c1e60b9
Encoding settings : cabac=1 / ref=11 / deblock=1:-2:-2 / analyse=0x3:0x133 / me=umh / subme=10 / psy=1 / fade_compensate=0.00 / psy_rd=1.00:0.05 / mixed_ref=1 / me_range=32 / chroma_me=1 / trellis=2 / 8x8dct=1 / cqm=0 / deadzone=21,11 / fast_pskip=0 / chroma_qp_offset=-3 / threads=6 / sliced_threads=0 / nr=0 / decimate=0 / interlaced=0 / bluray_compat=0 / constrained_intra=0 / bframes=9 / b_pyramid=2 / b_adapt=2 / b_bias=0 / direct=3 / weightb=1 / open_gop=0 / weightp=2 / keyint=250 / keyint_min=23 / scenecut=40 / intra_refresh=0 / rc_lookahead=120 / rc=2pass / mbtree=1 / bitrate=3000 / ratetol=1.0 / qcomp=0.70 / qpmin=0 / qpmax=69 / qpstep=4 / cplxblur=20.0 / qblur=0.5 / ip_ratio=1.40 / aq=2:1.00
Language : English
Color primaries : BT.709-5, BT.1361, IEC 61966-2-4, SMPTE RP177
Transfer characteristics : BT.709-5, BT.1361
Matrix coefficients : BT.709-5, BT.1361, IEC 61966-2-4 709, SMPTE RP177
Audio #1
ID : 2
Format : AC-3
Format/Info : Audio Coding 3
Mode extension : CM (complete main)
Codec ID : A_AC3
Duration : 1h 46mn
Bit rate mode : Constant
Bit rate : 448 Kbps
Channel(s) : 6 channels
Channel positions : Front: L C R, Side: L R, LFE
Sampling rate : 48.0 KHz
Bit depth : 16 bits
Compression mode : Lossy
Stream size : 343 MiB (11%)
Title : AC3; 6Ch; 48KHz; 16Bit; ~448Kbps (MVO Tycoon)
Language : Russian
Audio #2
ID : 3
Format : AC-3
Format/Info : Audio Coding 3
Mode extension : CM (complete main)
Codec ID : A_AC3
Duration : 1h 46mn
Bit rate mode : Constant
Bit rate : 448 Kbps
Channel(s) : 6 channels
Channel positions : Front: L C R, Side: L R, LFE
Sampling rate : 48.0 KHz
Bit depth : 16 bits
Compression mode : Lossy
Stream size : 343 MiB (11%)
Title : AC3; 6Ch; 48KHz; 16Bit; ~448Kbps (Original)
Language : English
Text
ID : 4
Format : UTF-8
Codec ID : S_TEXT/UTF8
Codec ID/Info : UTF-8 Plain Text
Title : UTF-8; SRT
Language : English
Menu
00:00:00.000 : en:Upstairs Delivery
00:04:55.833 : en:Chasing Credits
00:09:14.166 : en:Nobody Bothers Daisy
00:13:29.833 : en:Duking It Out
00:17:27.833 : en:Cosmetic Damage
00:20:22.500 : en:Hogg-Tied
00:23:55.166 : en:Safe Transport
00:28:37.166 : en:Pole Vault
00:32:19.833 : en:Grab Me an Armadillo
00:35:53.500 : en:Blowing Things Up
00:38:40.500 : en:Rescuing General Lee
00:41:54.333 : en:They're Nice Up Here
00:43:22.166 : en:Daisy Undercover
00:46:54.833 : en:Sorority Girls
00:50:37.000 : en:It Ain't Over Yer
00:52:07.333 : en:Campus Police
00:54:27.666 : en:Lab Specimens
00:58:17.333 : en:Sleight of Hand
01:02:47.333 : en:Checking Her Undercarriage
01:06:08.833 : en:Say You're Sorry
01:11:02.000 : en:Daisy Uncovered
01:14:32.166 : en:So Many Pigs
01:19:16.000 : en:Barnstormers
01:23:04.833 : en:Surprise Entry
01:26:47.333 : en:Joking and Smoking
01:30:56.000 : en:Finish Line
01:34:41.500 : en:Shooting the Moon
01:37:02.166 : en:Gubernatorial Pardons
01:39:56.166 : en:Feels Like Old Times
01:41:39.166 : en:Outtakes and End Credits
[Торрент-статистика]
[Профиль]  [ЛС] 
Показать сообщения:    
Ответить на тему

Текущее время: Сегодня 23:09

Часовой пояс: GMT + 4



Вы не можете начинать темы
Вы не можете отвечать на сообщения
Вы не можете редактировать свои сообщения
Вы не можете удалять свои сообщения
Вы не можете голосовать в опросах
Вы не можете прикреплять файлы к сообщениям
Вы не можете скачивать файлы