Миссия Серенити / Serenity (Джосс Уэдон / Joss Whedon) [2005, США, фантастика, боевик, триллер, приключения, BDRip] Dub

Ответить на тему
 
Автор
Сообщение

awk05 ®

Пол:

Стаж: 5 лет 8 месяцев

Сообщений: 1352

Репутация: 275 [+] [-]

Откуда: Западная Украина Ривне

Пост 28-Фев-2013 04:18

[Цитировать] 

--Миссия Серенити / Serenity«Хорошие, плохие, злые»--
Страна: США
Жанр: фантастика, боевик, триллер, приключения
Год выпуска: 2005
Продолжительность: 01:59:03
Перевод: Профессиональный (полное дублирование)
Cубтитры: Отсутствуют--Режиссер: Джосс Уэдон / Joss Whedon--В ролях: Нэйтан Филлион (Mal), Джина Торрес (Zoë), Алан Тьюдик (Wash), Морена Баккарин (Inara), Адам Болдуин (Jayne), Джуэл Стэйт (Kaylee), Шон Маэр (Simon), Саммер Глау (River), Рон Гласс (Shepherd Derrial Book), Чиветель Эджиофор (The Operative), Дэвид Крамхолц (Mr. Universe), Майкл Хичкок (Dr. Mathias), Сара Полсон (Dr. Caron), и др.--Описание: Продолжение культового сериала "Firefly"
Капитан Малькольм Рейнольдс, ветеран межгалактической войны, на старости лет живет тем, что «грачует» по галактике на своем корабле «Серенити» и расследует небольшие преступления. Под его руководством — маленькая, но дружная команда с полнейшим отсутствием дисциплины. Однажды капитан берет на борт двух новых пассажиров — молодого доктора и его сестру, которые скрываются от погони.
Девушка обладает телепатическими способностями, поэтому правительство Вселенной пытается захватить ее любой ценой. Корабль оказывается между двух огней: с одной стороны — неудержимая военная сила Всемирного Альянса, а с другой — яростные Похитители, дикари с дальних окраин космоса. Отчаянно спасаясь от столь разных врагов, команда «Серенити» обнаруживает, что самая большая опасность, возможно, кроется у них на борту…--Качество видео: BDRip
Формат видео: АVІ
Видео кодек: MPEG4, XviD
Аудио кодек: AC-3
Видео: MPEG4, XviD, 720x304 (2.35:1), 23.976 fps, 1 360 Kbps (0.259 bit/pixel)
Аудио: AC-3, 48.0 KHz, 6 ch, 384 Kbps, CBR, 16 бит [Русский] -- --

Знаете ли Вы, что...

* В личном деле Мэла, которое просматривал Оперативник, указана дата рождения — 20 сентября 2468 года. Вероятно, это отсылка к премьере сериала «Firefly», премьера которого состоялась 20 сентября 2002 года. Кроме того, 20 сентября 1968 года родился сценарист и продюсер сериала Бен Эдлунд.
* Этот фильм — первый продукт студии Universal, вышедший на HD-DVD.
* В звездной системе, где обитают герои фильма, довольно распространен китайский язык, в частности, именно на нем они предпочитают употреблять бранные выражения.
* Студия Universal осуществила беспрецедентную акцию, проведя несколько предварительных просмотров еще незаконченного фильма. Они проходили в но­ябре 2004 года, а также в мае и в июне 2005-го в различных городах США, а 22 июля 2005 года просмотр состоялся в Австралии. Кар­тина вышла в прокат только 30 сентября 2005 года.
* Пытаясь заставить Ривер заснуть, доктор Сай­мон Тэм произносит на русском языке фразу «Это курам на смех».
* В фильме насчитывается 74 убитых.
* Название космического корабля «Серенити» (оно же название самого фильма в оригинале) переводится с английского языка как «безмятежность», «спокойствие», «умиротворённость». Символика этого названия в русском переводе фильма полностью утрачена.
* Пилот «Серенити» Уош носит куртку с эмблемой международной программы космических полётов «Интеркосмос» на одном рукаве и эмблемой миссии космолёта «Космонавт Леонов» из фильма «Космическая одиссея 2010» (1984) на другом.
* В сцене похорон на Кэйли надет медальон с изображением китайского символа счастья, кото­рый, как правило, используется на свадьбах.

MediaInfo

Код:
General
Complete name                            : E:\СЕРИАЛЫ\Firefly - FandF.ru-LostFilm.tv\Serenity.BDRip.(1.45),by encoderrr.avi
Format                                   : AVI
Format/Info                              : Audio Video Interleave
File size                                : 1.46 GiB
Duration                                 : 1h 59mn
Overall bit rate                         : 1 754 Kbps
Writing application                      : VirtualDubMod 1.5.10.3 | www.virtualdub-fr.org || (build 2550/release)
Writing library                          : VirtualDubMod build 2550/release
Video
ID                                       : 0
Format                                   : MPEG-4 Visual
Format profile                           : Advanced Simple@L5
Format settings, BVOP                    : 1
Format settings, QPel                    : No
Format settings, GMC                     : No warppoints
Format settings, Matrix                  : Custom
Codec ID                                 : XVID
Codec ID/Hint                            : XviD
Duration                                 : 1h 59mn
Bit rate                                 : 1 360 Kbps
Width                                    : 720 pixels
Height                                   : 304 pixels
Display aspect ratio                     : 2.35:1
Frame rate                               : 23.976 fps
Color space                              : YUV
Chroma subsampling                       : 4:2:0
Bit depth                                : 8 bits
Scan type                                : Progressive
Compression mode                         : Lossy
Bits/(Pixel*Frame)                       : 0.259
Stream size                              : 1.13 GiB (78%)
Writing library                          : XviD 73
Audio
ID                                       : 1
Format                                   : AC-3
Format/Info                              : Audio Coding 3
Codec ID                                 : 2000
Duration                                 : 1h 58mn
Bit rate mode                            : Constant
Bit rate                                 : 384 Kbps
Channel count                            : 6 channels
Sampling rate                            : 48.0 KHz
Compression mode                         : Lossy
Stream size                              : 327 MiB (22%)
Alignment                                : Split accross interleaves
Interleave, duration                     : 42 ms (1.00 video frame)
Interleave, preload duration             : 500 ms

_________________


Последний раз редактировалось: awk05 (2014-08-08 01:26), всего редактировалось 3 раз(а)
[Торрент-статистика]
[Профиль]  [ЛС] 

DarthNihilus

Пол:

Стаж: 6 лет 3 месяца

Сообщений: 1069

Репутация: 166 [+] [-]

Откуда: Антарктида

Пост 28-Фев-2013 10:41 (спустя 6 часов)

[Цитировать] 

мой второй по любимости фантастический фильм после Эквилибриума.
З.Ы. А Саммер Глау как бы и нипричём, да ? ab))

_________________
[Нет сидов - включите DHT]
[Торрент-статистика]
[Профиль]  [ЛС] 

awk05 ®

Пол:

Стаж: 5 лет 8 месяцев

Сообщений: 1352

Репутация: 275 [+] [-]

Откуда: Западная Украина Ривне

Пост 28-Фев-2013 19:07 (спустя 8 часов)

[Цитировать] 

да, сериал и фильм супер жалко что закрыли

_________________
[Торрент-статистика]
[Профиль]  [ЛС] 
Показать сообщения:    
Ответить на тему

Текущее время: Сегодня 21:38

Часовой пояс: GMT + 4



Вы не можете начинать темы
Вы не можете отвечать на сообщения
Вы не можете редактировать свои сообщения
Вы не можете удалять свои сообщения
Вы не можете голосовать в опросах
Вы не можете прикреплять файлы к сообщениям
Вы не можете скачивать файлы