Незваные / The Uninvited (Чарли Гард, Томас Гард) [2009, Ужасы, триллер, драма, HQRip-AVC]

Ответить на тему
 
Автор
Сообщение

prim ®

Стаж: 6 лет 6 месяцев

Сообщений: 92

Репутация: 23 [+] [-]

Пост 26-Ноя-2012 19:22

[Цитировать] 

НезваныеThe Uninvited Год выпуска: 2009
Страна: США, Канада, Германия
Слоган: «Fear moves in»
Жанр: Ужасы, триллер, драма
Продолжительность: 01:27:16-Перевод: Профессиональный (дубляж)
Режиссёр: Чарли Гард, Томас Гард
В ролях: Элизабет Бэнкс, Эмили Браунинг, Ариэль Кеббел, Дэвид Стрэтэйрн, Майя Массар, Кевин МакНалти, Джесси Мосс, Дин Пол Гибсон, Дон С. Дэвис, Лекс Бёрнэм-Описание: Анна, после смерти матери, попадает в клинику. После лечения она возвращается домой и узнает, что отец встречается с Рейчел, медсестрой, которая когда-то ухаживала за ее умирающей матерью. Смятение Анны сменяется ужасом, когда ее посещает призрак матери и сообщает о злобных намерениях медсестры. Вместе со своей сестрой она начинает расследовать странные обстоятельства гибели их матери, и вскоре их противостояние с незваной гостьей достигает апогея…--Качество: HQRip-AVC
Формат: MKV
Видео кодек: H264 (AVC)
Аудио кодек: AC3 (Dolby Digital)
Видео: 1 280x720, 23.976 fps, 3 161 Kbps
Аудио #1: 48.0 KHz, 6 ch, 448 Kbps-

Знаете ли Вы, что...

Первоначально фильм, как и оригинал, носил название «История двух сестер».
Фильм стал режиссёрским кинодебютом для братьев Чарли и Томаса Гард, до этого снявших большое количество рекламных роликов для крупных компаний и несколько короткометражек.
По сценарию героине Эмили Браунинг должно было быть 14—15 лет, но на момент съёмок актрисе было уже за двадцать.
Эмили Браунинг первоначально пробовалась на роль Алекс.
Поскольку разница в росте между двумя актрисами оказалась минимальной, на съёмках при работе с камерами были использованы все возможные трюки и уловки, чтобы Элизабет Бэнкс на экране выглядела значительно выше Эмили Браунинг.

MI

General
Unique ID : 209565560356461689329731862660646159533 (0x9DA8DBDA55CC7910B85C2DD03153C4AD)
Complete name : Незваные.2009.mkv
Format : Matroska
Format version : Version 2
File size : 2.18 GiB
Duration : 1h 27mn
Overall bit rate mode : Variable
Overall bit rate : 3 576 Kbps
Encoded date : UTC 2011-02-10 23:21:05
Writing application : mkvmerge v3.2.0 ('Beginnings') built on Feb 12 2010 16:46:17
Writing library : libebml v0.7.9 + libmatroska v0.8.1
Video
ID : 2
Format : AVC
Format/Info : Advanced Video Codec
Format profile : High@L4.1
Format settings, CABAC : Yes
Format settings, ReFrames : 3 frames
Codec ID : V_MPEG4/ISO/AVC
Duration : 1h 27mn
Bit rate mode : Variable
Bit rate : 3 161 Kbps
Maximum bit rate : 17.5 Mbps
Width : 1 280 pixels
Height : 720 pixels
Display aspect ratio : 16:9
Frame rate : 23.976 fps
Color space : YUV
Chroma subsampling : 4:2:0
Bit depth : 8 bits
Scan type : Progressive
Bits/(Pixel*Frame) : 0.143
Stream size : 1.86 GiB (85%)
Title : The.Uninvited
Writing library : x264 core 112 r1867 22bfd31
Encoding settings : cabac=1 / ref=1 / deblock=1:0:0 / analyse=0x3:0x3 / me=dia / subme=1 / psy=1 / psy_rd=0.00:0.00 / mixed_ref=0 / me_range=16 / chroma_me=1 / trellis=0 / 8x8dct=1 / cqm=0 / deadzone=21,11 / fast_pskip=1 / chroma_qp_offset=0 / threads=6 / sliced_threads=0 / slices=4 / nr=0 / decimate=1 / interlaced=0 / constrained_intra=0 / bframes=3 / b_pyramid=1 / b_adapt=1 / b_bias=0 / direct=1 / weightb=1 / open_gop=0 / weightp=1 / keyint=24 / keyint_min=1 / scenecut=40 / intra_refresh=0 / rc_lookahead=0 / rc=abr / mbtree=0 / bitrate=3161 / ratetol=1.0 / qcomp=0.60 / qpmin=0 / qpmax=51 / qpstep=4 / vbv_maxrate=17500 / vbv_bufsize=14500 / nal_hrd=vbr / ip_ratio=1.10 / pb_ratio=1.10 / aq=1:1.00
Language : English
Default : Yes
Forced : No
Audio
ID : 1
Format : AC-3
Format/Info : Audio Coding 3
Mode extension : CM (complete main)
Format settings, Endianness : Big
Codec ID : A_AC3
Duration : 1h 27mn
Bit rate mode : Constant
Bit rate : 448 Kbps
Channel(s) : 6 channels
Channel positions : Front: L C R, Side: L R, LFE
Sampling rate : 48.0 KHz
Bit depth : 16 bits
Compression mode : Lossy
Stream size : 280 MiB (13%)
Language : Russian
Default : Yes
Forced : No

Скриншоты

[Торрент-статистика]
[Профиль]  [ЛС] 
Показать сообщения:    
Ответить на тему

Текущее время: Сегодня 19:28

Часовой пояс: GMT + 4



Вы не можете начинать темы
Вы не можете отвечать на сообщения
Вы не можете редактировать свои сообщения
Вы не можете удалять свои сообщения
Вы не можете голосовать в опросах
Вы не можете прикреплять файлы к сообщениям
Вы не можете скачивать файлы