Из Парижа с любовью / From Paris with Love (Пьер Морель) [2009, боевик, триллер, комедия, криминал, HQRip-AVC]

Ответить на тему
 
Автор
Сообщение

diim ®

Пол:

Стаж: 3 года

Сообщений: 1035

Репутация: 112 [+] [-]

Пост 30-Окт-2012 23:39

[Цитировать] 

-Из Парижа с любовью
From Paris with Love
-«Two agents. One city. No merci.»-Год выпуска: 2009
Страна: Франция, США
Жанр: боевик, триллер, комедия, криминал
Продолжительность: 01:32:39
Перевод: Профессиональный (полное дублирование)
Режиссер: Пьер Морел / Pierre Morel
Сценарий: Ади Хасак / Adi Hasak, Люк Бессон / Luc Besson
Продюсер: Люк Бессон / Luc Besson, Индия Осборн / India Osborne, Вирджиния Силла / Virginie Silla, Энсон Даунс / Anson Downes, Линда Фавила / Linda Favila
Оператор: Мишель Абрамович / Michel Abramowicz
Композитор: Дэвид Баккли / David Buckley
В ролях: Джон Траволта (Charlie Wax), Джонатан Риз Майерс (James Reece), Касия Смутняк (Caroline), Ричард Дерден (Ambassador Bennington), Йин Бинг (M. Wong), Эмбер Роуз Рева (Nichole), Эрик Годон (Foreign Minister), Франсуа Бредон (The Thug), Чемс Дамани (Rashid), Сами Дарр (The Pimp), Джульен Хагнери (Chinese Punk), Мостефа Стити (Dir Yasin)
Дублёры: Владимир Герасимов (Charlie Wax), Денис Беспалый (James Reece), Татьяна Шитова (Caroline), Рудольф Панков (Ambassador Bennington), Ольга Зубкова (Nichole), Борис Токарев (Airport Security Official), Даниил Эльдаров, Александр Хотченков, Владимир Антоник (The Voice)-Описание:
Джеймсу можно позавидовать: должность личного помощника посла США во Франции, красавица-парижанка в качестве подружки, дорогие костюмы и непыльная работенка оперативника ЦРУ. Но мечтает он совсем о другом, о полной приключений жизни настоящего тайного агента, спасающего мир кулаками, выстрелами и едкими репликами. Судьба иронично улыбается Джеймсу. Он получает настоящее боевое задание в придачу с напарником-сорвиголовой Чарли Уэксом. Но вскоре он понимает, что быть супер агентом не так уж и здорово, как он представлял.-
| MPAA: - Лицам до 17 лет обязательно присутствие взрослого
Качество: HQRip-AVC
Формат: MKV
Видео: AVC; 1024x432 (2.35:1); 2274 Kbps; 23,976 fps; 0,214 bpp
Аудио №1: AC3; 448 Kbps; CBR; 6 ch; 16 bit; // русский
Аудио №2: AC3; 448 Kbps; CBR; 6 ch; 16 bit; // английский
Субтитры: русские, английские

MediaInfo:

Код:
General
Unique ID                                : 220546274393176861290496710497773385276 (0xA5EBAADA93242877A68A583D9F65763C)
Complete name                            : M:\1. Фильмы\Iz.Pariza.s.ljubovju.2010.HQRip-AVC.junk666.[R.G.KINOvNINO].mkv
Format                                   : Matroska
Format version                           : Version 1
File size                                : 2.05 GiB
Duration                                 : 1h 32mn
Overall bit rate                         : 3 169 Kbps
Movie name                               : mixa0304
Encoded date                             : UTC 2011-01-29 13:41:04
Writing application                      : mkvmerge v2.3.0 ('Freak U') built on Sep  8 2008 18:32:16
Writing library                          : libebml v0.7.7 + libmatroska v0.8.1
Video
ID                                       : 1
Format                                   : AVC
Format/Info                              : Advanced Video Codec
Format profile                           : High@L3.1
Format settings, CABAC                   : Yes
Format settings, ReFrames                : 5 frames
Codec ID                                 : V_MPEG4/ISO/AVC
Duration                                 : 1h 32mn
Bit rate                                 : 2 274 Kbps
Width                                    : 1 024 pixels
Height                                   : 432 pixels
Display aspect ratio                     : 2.35:1
Frame rate                               : 23.976 fps
Color space                              : YUV
Chroma subsampling                       : 4:2:0
Bit depth                                : 8 bits
Scan type                                : Progressive
Bits/(Pixel*Frame)                       : 0.214
Stream size                              : 1.43 GiB (70%)
Writing library                          : x264 core 92 r1510 33d382a
Encoding settings                        : cabac=1 / ref=5 / deblock=1:-3:-3 / analyse=0x3:0x111 / me=umh / subme=9 / psy=1 / psy_rd=1.00:0.00 / mixed_ref=1 / me_range=32 / chroma_me=1 / trellis=2 / 8x8dct=1 / cqm=0 / deadzone=21,11 / fast_pskip=1 / chroma_qp_offset=-2 / threads=6 / sliced_threads=0 / nr=0 / decimate=1 / interlaced=0 / constrained_intra=0 / bframes=3 / b_pyramid=2 / b_adapt=2 / b_bias=0 / direct=3 / wpredb=1 / wpredp=2 / keyint=250 / keyint_min=25 / scenecut=40 / intra_refresh=0 / rc_lookahead=60 / rc=2pass / mbtree=1 / bitrate=2274 / ratetol=1.0 / qcomp=0.60 / qpmin=10 / qpmax=51 / qpstep=4 / cplxblur=20.0 / qblur=0.5 / ip_ratio=1.40 / aq=1:1.00
Default                                  : Yes
Forced                                   : No
Audio #1
ID                                       : 2
Format                                   : AC-3
Format/Info                              : Audio Coding 3
Mode extension                           : CM (complete main)
Codec ID                                 : A_AC3
Duration                                 : 1h 32mn
Bit rate mode                            : Constant
Bit rate                                 : 448 Kbps
Channel(s)                               : 6 channels
Channel positions                        : Front: L C R, Side: L R, LFE
Sampling rate                            : 48.0 KHz
Bit depth                                : 16 bits
Compression mode                         : Lossy
Stream size                              : 297 MiB (14%)
Language                                 : Russian
Default                                  : Yes
Forced                                   : No
Audio #2
ID                                       : 3
Format                                   : AC-3
Format/Info                              : Audio Coding 3
Mode extension                           : CM (complete main)
Codec ID                                 : A_AC3
Duration                                 : 1h 32mn
Bit rate mode                            : Constant
Bit rate                                 : 448 Kbps
Channel(s)                               : 6 channels
Channel positions                        : Front: L C R, Side: L R, LFE
Sampling rate                            : 48.0 KHz
Bit depth                                : 16 bits
Compression mode                         : Lossy
Stream size                              : 297 MiB (14%)
Language                                 : English
Default                                  : No
Forced                                   : No
Text #1
ID                                       : 4
Format                                   : UTF-8
Codec ID                                 : S_TEXT/UTF8
Codec ID/Info                            : UTF-8 Plain Text
Language                                 : Russian
Default                                  : Yes
Forced                                   : No
Text #2
ID                                       : 5
Format                                   : UTF-8
Codec ID                                 : S_TEXT/UTF8
Codec ID/Info                            : UTF-8 Plain Text
Language                                 : English
Default                                  : No
Forced                                   : No
-

Дополнительная информация:

Бюджет: $52 000 000
Сборы в США: $24 077 427
Сборы в России: $2 411 887
Сборы в мире: $52 826 594
Мировая премьера: 4 февраля 2010
Релиз на DVD: 25 февраля 2010, «Новый Диск», «CD Land»
Релиз на Blu-ray: 16 декабря 2010, «Новый Диск»

Знаете ли Вы, что...

  • «Миссис Джонс» - это модифицированный вариант пистолета SIG-Sauer P226 X-Five швейцарского производства.
  • Сцена, в которой Чарли Вэкс ест «Рояль с сыром» - отсылка к сцене фильма «Криминальное чтиво», в которой герой Джона Траволты рассказывает Джулсу Уиннфилду о происхождении этого названия.

Скриншоты:

[Торрент-статистика]
[Профиль]  [ЛС] 
Показать сообщения:    
Ответить на тему

Текущее время: Сегодня 08:57

Часовой пояс: GMT + 4



Вы не можете начинать темы
Вы не можете отвечать на сообщения
Вы не можете редактировать свои сообщения
Вы не можете удалять свои сообщения
Вы не можете голосовать в опросах
Вы не можете прикреплять файлы к сообщениям
Вы не можете скачивать файлы