Взрослая неожиданность. Полная версия / Role Models. Unrated (Дэвид Уэйн) [2008, Комедия, HQRip]

Ответить на тему
 
Автор
Сообщение

diim ®

Пол:

Стаж: 3 года 8 месяцев

Сообщений: 1033

Репутация: 112 [+] [-]

Пост 28-Окт-2012 05:52

[Цитировать] 

-Взрослая неожиданность
Role Models
-«Два мальчика сделают их мужчинами»-Год выпуска: 2008
Страна: США, Германия
Жанр: мелодрама, комедия
Продолжительность: 01:41:07
Перевод: Профессиональный (полное дублирование)
Режиссер: Дэвид Уэйн / David Wain
Сценарий: Тимоти Даулинг / Timothy Dowling, Пол Радд / Paul Rudd, Дэвид Уэйн / David Wain, Кен Марино / Ken Marino, Уильям Блейк Херрон / W. Blake Herron
Продюсер: Скотт Стубер / Scott Stuber, Люк Гринфилд / Luke Greenfield, Мэри Пэрент / Mary Parent, Хуан Кастро / Juan Castro, Эндрю З. Дэвис / Andrew Z. Davis
Оператор: Русс Т. Олсоубрук / Russ T. Alsobrook
Композитор: Крэйг Уэдрен / Craig Wedren
В ролях: Шонн Уильям Скотт (Wheeler), Пол Радд (Danny), Кристофер Минц-Плассе (Augie), Бобби Дж. Томпсон (Ronnie), Элизабет Бэнкс (Beth), Джейн Линч (Sweeny), Кен Жонг (King Argotron), Кен Марино (Jim Stansel), Керри Кенни (Lynette), А.Д. Майлз (Martin), Джо Ло Труглио (Kuzzik), Мэтт Уолш (Davith of Glencracken)
Дублёры: Александр Коврижных (Wheeler), Александр Гаврилин (Danny), Прохор Чеховской (Augie), Томас Шлеккер (Ronnie), Рамиля Искандер (Beth), Ольга Зубкова (Sweeny), Андрей Бархударов (King Argotron), Михаил Тихонов (Martin), Александр Груздев (Kuzzik), Лиза Мартиросова (Sarah - Beth's Friend)-Описание:
Пройдохи Денни и Уиллер - представители компании, торгующей энергетическими напитками. Однажды они переворачивают хозяйский грузовик и отправляются под суд. Чтобы не оказаться за решеткой, бедокуры решают схитрить и поучаствовать в многочасовой воспитательной программе для детей. Через день они понимают, что лучше бы выбрали тюрьму. Денни выпала нелегкая доля: сделать из сопливого шестнадцатилетнего паренька, одержимого средневековыми постановками, настоящего мужчину. Меж тем, Уиллер воспитывает пятиклассника Ронни. Возможно, из этой затеи вышел бы прок, не окажись первый большим любителем венецианских пляжей и легкого алкоголя.-
| MPAA: - Лицам до 17 лет обязательно присутствие взрослого
Качество: HQRip
Формат: AVI
Видео: XviD; 720x384 (1.875); 2176 Kbps; 23,976 fps; 0,328 bpp
Аудио №1: AC3; 448 Kbps; CBR; 6 ch; 16 bit // RUS
Аудио №2: AC3; 448 Kbps; CBR; 6 ch; 16 bit // ENG

MediaInfo

Код:
General
Complete name                            : M:\1. Фильмы\Vzroslaya.Neozhidannost.2008.HQRip.junk666.[R.G.KINOvNINO].avi
Format                                   : AVI
Format/Info                              : Audio Video Interleave
Format profile                           : OpenDML
File size                                : 2.18 GiB
Duration                                 : 1h 41mn
Overall bit rate                         : 3 090 Kbps
Movie name                               : Взрослая неожиданность / Role Models [Unrated] (2008) BDRip
Director                                 : HELLRAiSER
Writing application                      : VirtualDubMod 1.5.10.2 (build 2542/release)
Copyright                                : www.friends-club.info
Comment                                  : 26.03.2009
Video
ID                                       : 0
Format                                   : MPEG-4 Visual
Format profile                           : Advanced Simple@L5
Format settings, BVOP                    : 1
Format settings, QPel                    : No
Format settings, GMC                     : No warppoints
Format settings, Matrix                  : Default (MPEG)
Codec ID                                 : XVID
Codec ID/Hint                            : XviD
Duration                                 : 1h 41mn
Bit rate                                 : 2 176 Kbps
Width                                    : 720 pixels
Height                                   : 384 pixels
Display aspect ratio                     : 1.875
Frame rate                               : 23.976 fps
Color space                              : YUV
Chroma subsampling                       : 4:2:0
Bit depth                                : 8 bits
Scan type                                : Progressive
Compression mode                         : Lossy
Bits/(Pixel*Frame)                       : 0.328
Stream size                              : 1.54 GiB (70%)
Writing library                          : XviD 1.2.1 (UTC 2008-12-04)
Audio #1
ID                                       : 1
Format                                   : AC-3
Format/Info                              : Audio Coding 3
Mode extension                           : CM (complete main)
Codec ID                                 : 2000
Duration                                 : 1h 41mn
Bit rate mode                            : Constant
Bit rate                                 : 448 Kbps
Channel(s)                               : 6 channels
Channel positions                        : Front: L C R, Side: L R, LFE
Sampling rate                            : 48.0 KHz
Bit depth                                : 16 bits
Compression mode                         : Lossy
Stream size                              : 324 MiB (14%)
Alignment                                : Split accross interleaves
Interleave, duration                     : 42 ms (1.00 video frame)
Interleave, preload duration             : 500 ms
Audio #2
ID                                       : 2
Format                                   : AC-3
Format/Info                              : Audio Coding 3
Mode extension                           : CM (complete main)
Codec ID                                 : 2000
Duration                                 : 1h 41mn
Bit rate mode                            : Constant
Bit rate                                 : 448 Kbps
Channel(s)                               : 6 channels
Channel positions                        : Front: L C R, Side: L R, LFE
Sampling rate                            : 48.0 KHz
Bit depth                                : 16 bits
Compression mode                         : Lossy
Stream size                              : 324 MiB (14%)
Alignment                                : Split accross interleaves
Interleave, duration                     : 42 ms (1.00 video frame)
Interleave, preload duration             : 500 ms

Дополнительная информация

Бюджет: $28 000 000
Сборы в США: $67 294 270
Сборы в России: $727 707
Сборы в мире: $92 380 927
Мировая премьера: 22 октября 2008
Релиз на DVD: 24 марта 2009, «Юниверсал Пикчерс Рус»

Знаете ли Вы, что...

Скриншоты

[Торрент-статистика]
[Профиль]  [ЛС] 
Показать сообщения:    
Ответить на тему

Текущее время: Сегодня 05:59

Часовой пояс: GMT + 4



Вы не можете начинать темы
Вы не можете отвечать на сообщения
Вы не можете редактировать свои сообщения
Вы не можете удалять свои сообщения
Вы не можете голосовать в опросах
Вы не можете прикреплять файлы к сообщениям
Вы не можете скачивать файлы