Район №9 / District 9 (Нил Бломкамп / Neill Blomkamp) [2009 г., фантастика, боевик, триллер, BDRip-AVC]

Ответить на тему
 
Автор
Сообщение

Ратибор ®

Стаж: 6 лет 3 месяца

Сообщений: 201

Репутация: 10 [+] [-]

Пост 25-Ноя-2011 01:10

[Цитировать] 

Район №9 / District 9
Год выпуска: 2009
Страна: США
Жанр: фантастика, боевик, триллер
Продолжительность: 01:52:15
Перевод: Профессиональный (полное дублирование)
Cубтитры: русские фосированные, русские полные, английские.
Оригинальная аудиодорожка: английский - отдельно
Режиссер: Нил Бломкамп / Neill Blomkamp
В ролях: Шарлто Копли, Джейсон Коуп, Натали Болтт, Сильвен Страйк, Элизабет Мкандави, Джон Самнер, Уильям Аллен Янг, Грег Мелвилл-Смит, Ник Блейк
Описание: Более 20 лет назад инопланетяне установили первый контакт с Землей. Люди были готовы ко всему — от враждебного вторжения до невероятного технологического прорыва. Ни того, ни другого не произошло. Пришельцы оказались беженцами со своей собственной планеты, и пока мировое сообщество решало, что с ними делать дальше, для них был организован временный лагерь в южноафриканском Районе № 9.
Качество: BDRip-AVC(Исх. BDRemux)
Формат: MKV
Видео: 1024x560 (16:9), 23.976 fps, AVC, ~1407 kbps, 0.102 bits/pixel
Аудио: 48.0 KHz, AC3, 6 ch, 448 kbps RUS
Аудио: 48.0 KHz, AC3, 6 ch, 448 kbps ENG - отдельно
Формат субтитров: softsub (SRT)

MedieInfo

General
Unique ID : 193568289798927515239684535104271699160 (0x919FE585017ED719B3D068DC7FA24CD8)
Complete name : L:\9 rayon\9 rayon.mkv
Format : Matroska
File size : 1.46 GiB
Duration : 1h 52mn
Overall bit rate : 1 856 Kbps
Movie name : 9 rayon
Encoded date : UTC 2011-07-12 14:43:34
Writing application : mkvmerge v4.8.0 ('I Got The...') built on May 24 2011 03:12:58
Writing library : libebml v1.2.0 + libmatroska v1.1.0
Video
ID : 1
Format : AVC
Format/Info : Advanced Video Codec
Format profile : High@L4.1
Format settings, CABAC : Yes
Format settings, ReFrames : 6 frames
Codec ID : V_MPEG4/ISO/AVC
Duration : 1h 52mn
Bit rate : 1 407 Kbps
Width : 1 024 pixels
Height : 560 pixels
Display aspect ratio : 16:9
Frame rate : 23.976 fps
Color space : YUV
Chroma subsampling : 4:2:0
Bit depth : 8 bits
Scan type : Progressive
Bits/(Pixel*Frame) : 0.102
Stream size : 1.07 GiB (74%)
Title : 9 rayon
Writing library : x264 core 115 r2008 4c552d8
Encoding settings : cabac=1 / ref=6 / deblock=1:-2:-1 / analyse=0x3:0x133 / me=umh / subme=10 / psy=1 / psy_rd=1.00:0.10 / mixed_ref=1 / me_range=32 / chroma_me=1 / trellis=2 / 8x8dct=1 / cqm=0 / deadzone=21,11 / fast_pskip=0 / chroma_qp_offset=-3 / threads=3 / sliced_threads=0 / nr=0 / decimate=1 / interlaced=0 / bluray_compat=0 / constrained_intra=0 / bframes=10 / b_pyramid=2 / b_adapt=2 / b_bias=0 / direct=3 / weightb=1 / open_gop=0 / weightp=2 / keyint=250 / keyint_min=23 / scenecut=40 / intra_refresh=0 / rc_lookahead=80 / rc=2pass / mbtree=1 / bitrate=1407 / ratetol=1.0 / qcomp=0.70 / qpmin=10 / qpmax=51 / qpstep=4 / cplxblur=20.0 / qblur=0.5 / ip_ratio=1.40 / aq=1:1.10
Language : English
Audio
ID : 2
Format : AC-3
Format/Info : Audio Coding 3
Mode extension : CM (complete main)
Codec ID : A_AC3
Duration : 1h 52mn
Bit rate mode : Constant
Bit rate : 448 Kbps
Channel(s) : 6 channels
Channel positions : Front: L C R, Side: L R, LFE
Sampling rate : 48.0 KHz
Bit depth : 16 bits
Compression mode : Lossy
Delay relative to video : 1s 0ms
Stream size : 360 MiB (24%)
Title : Дубляж
Text #1
ID : 3
Format : UTF-8
Codec ID : S_TEXT/UTF8
Codec ID/Info : UTF-8 Plain Text
Title : Русские-форсированные
Text #2
ID : 4
Format : UTF-8
Codec ID : S_TEXT/UTF8
Codec ID/Info : UTF-8 Plain Text
Title : Русские полные
Text #3
ID : 5
Format : UTF-8
Codec ID : S_TEXT/UTF8
Codec ID/Info : UTF-8 Plain Text
Title : Английские

Скриншоты


_________________

[Торрент-статистика]
[Профиль]  [ЛС] 

Ратибор ®

Стаж: 6 лет 3 месяца

Сообщений: 201

Репутация: 10 [+] [-]

Пост 25-Ноя-2011 01:20 (спустя 10 минут)

[Цитировать] 

Столкнулся с любопытным моментом. Когда на радикале постишь скрины в формате .png то в превью показывает, буд-то это .jpeg , хотя когда открываешь, там нормальный формат .png. Прикольно.

_________________

[Торрент-статистика]
[Профиль]  [ЛС] 
Показать сообщения:    
Ответить на тему

Текущее время: Сегодня 08:52

Часовой пояс: GMT + 4



Вы не можете начинать темы
Вы не можете отвечать на сообщения
Вы не можете редактировать свои сообщения
Вы не можете удалять свои сообщения
Вы не можете голосовать в опросах
Вы не можете прикреплять файлы к сообщениям
Вы не можете скачивать файлы