Неуловимый Люк / Lucky Luke (Джеймс Хат) [2009, Комедия, приключения, вестерн, HQRip-AVC][Лицензия]

Ответить на тему
 
Автор
Сообщение

diim ®

Пол:

Стаж: 3 года 2 месяца

Сообщений: 1035

Репутация: 112 [+] [-]

Пост 18-Сен-2012 22:20

[Цитировать] 

Неуловимый Люк / Lucky Luke Год выпуска: 2009
Страна: Франция, Аргентина
Слоган: «Быстрее тени»
Жанр: Комедия, приключения, вестерн
Продолжительность: 01:43:15-Режиссёр: Джеймс Хат
В ролях: Мельвиль Пупо, Жан Дюжарден, Сильви Тестю, Александра Лэми, Майкл Юн, Жан-Франсуа Бальме, Даниэль Прево, Бруно Саломон, Карлос Каспар-Описание: Счастливчик Люк возвращается в свой родной город Дэйзи Таун, где в то время хозяйничают злодеи Пат Покер и Билли Зи Ки. Там он встретит свою любовь, певицу из местной таверны по имени Белль, а также столкнётся со своими давними врагами Кэлэмити Джэйн и Джесси Джеймсом--Качество: HQRip-AVC
Формат: MKV
Видео кодек: H264 (AVC)
Аудио кодек: AC3 (Dolby Digital)
Видео: 1 072x456, 24.000 fps, 1 721 Kbps
Аудио #1: 48.0 KHz, 6 ch, 384 Kbps [Профессиональный (дубляж)] Лицензия
Аудио #2: 48.0 KHz, 2 ch, 192 Kbps [Оригинальная звуковая дорожка]
Субтитры: Английские, Украинские-

MediaInfo

General
Unique ID : 215432388196890827586806943345849240140 (0xA212C4CC4551CDD2BEB4DB424EFD8A4C)
Complete name : Неуловимый Люк.2009.mkv
Format : Matroska
Format version : Version 2
File size : 1.66 GiB
Duration : 1h 43mn
Overall bit rate : 2 298 Kbps
Encoded date : UTC 2011-10-07 14:03:46
Writing application : mkvmerge v4.9.1 ('Ich will') сборка от Jul 11 2011 23:53:15
Writing library : libebml v1.2.1 + libmatroska v1.1.1
Video
ID : 1
Format : AVC
Format/Info : Advanced Video Codec
Format profile : High@L4.1
Format settings, CABAC : Yes
Format settings, ReFrames : 12 frames
Codec ID : V_MPEG4/ISO/AVC
Duration : 1h 43mn
Bit rate : 1 721 Kbps
Width : 1 072 pixels
Height : 456 pixels
Display aspect ratio : 2.35:1
Frame rate : 24.000 fps
Color space : YUV
Chroma subsampling : 4:2:0
Bit depth : 8 bits
Scan type : Progressive
Bits/(Pixel*Frame) : 0.147
Stream size : 1.21 GiB (73%)
Title : Neulovimyi.Lyuk.2009.HDRip.x264
Writing library : x264 core 115 r1937 aa21558
Encoding settings : cabac=1 / ref=12 / deblock=1:-3:-3 / analyse=0x3:0x133 / me=umh / subme=9 / psy=1 / psy_rd=1.00:0.10 / mixed_ref=1 / me_range=32 / chroma_me=1 / trellis=2 / 8x8dct=1 / cqm=0 / deadzone=21,11 / fast_pskip=1 / chroma_qp_offset=-3 / threads=9 / sliced_threads=0 / nr=0 / decimate=1 / interlaced=0 / bluray_compat=0 / constrained_intra=0 / bframes=3 / b_pyramid=2 / b_adapt=2 / b_bias=0 / direct=3 / weightb=1 / open_gop=0 / weightp=2 / keyint=250 / keyint_min=24 / scenecut=40 / intra_refresh=0 / rc_lookahead=60 / rc=2pass / mbtree=1 / bitrate=1721 / ratetol=1.0 / qcomp=0.60 / qpmin=0 / qpmax=69 / qpstep=4 / cplxblur=20.0 / qblur=0.5 / ip_ratio=1.40 / aq=1:1.20
Language : English
Default : Yes
Forced : No
Audio #1
ID : 2
Format : AC-3
Format/Info : Audio Coding 3
Mode extension : CM (complete main)
Format settings, Endianness : Big
Codec ID : A_AC3
Duration : 1h 43mn
Bit rate mode : Constant
Bit rate : 384 Kbps
Channel(s) : 6 channels
Channel positions : Front: L C R, Side: L R, LFE
Sampling rate : 48.0 KHz
Bit depth : 16 bits
Compression mode : Lossy
Stream size : 284 MiB (17%)
Title : Дубляж [лицензия]
Language : Russian
Default : Yes
Forced : No
Audio #2
ID : 3
Format : AC-3
Format/Info : Audio Coding 3
Mode extension : CM (complete main)
Format settings, Endianness : Big
Codec ID : A_AC3
Duration : 1h 43mn
Bit rate mode : Constant
Bit rate : 192 Kbps
Channel(s) : 2 channels
Channel positions : Front: L R
Sampling rate : 48.0 KHz
Bit depth : 16 bits
Compression mode : Lossy
Stream size : 142 MiB (8%)
Title : Оригинал
Language : English
Default : No
Forced : No
Text #1
ID : 4
Format : UTF-8
Codec ID : S_TEXT/UTF8
Codec ID/Info : UTF-8 Plain Text
Language : Ukrainian
Default : No
Forced : No
Text #2
ID : 5
Format : UTF-8
Codec ID : S_TEXT/UTF8
Codec ID/Info : UTF-8 Plain Text
Language : English
Default : No
Forced : No

Скриншоты

[Торрент-статистика]
[Профиль]  [ЛС] 
Показать сообщения:    
Ответить на тему

Текущее время: Сегодня 07:01

Часовой пояс: GMT + 4



Вы не можете начинать темы
Вы не можете отвечать на сообщения
Вы не можете редактировать свои сообщения
Вы не можете удалять свои сообщения
Вы не можете голосовать в опросах
Вы не можете прикреплять файлы к сообщениям
Вы не можете скачивать файлы