Псалом 21 / Psalm 21 (Фредерик Хиллер) [2009, Ужасы, фантастика, триллер, HQRip-AVC]

Ответить на тему
 
Автор
Сообщение

diim ®

Пол:

Стаж: 3 года

Сообщений: 1035

Репутация: 112 [+] [-]

Пост 17-Сен-2012 22:54

[Цитировать] 

Псалом 21 / Psalm 21 Год выпуска: 2009
Страна: Швеция
Жанр: Ужасы, фантастика, триллер
Продолжительность: 01:38:08
Перевод: Любительский (одноголосый закадровый) viare-Режиссёр: Фредерик Хиллер
В ролях: Йонас Мальмшё, Никлас Фальк, Йозефин Льюнгман, Пер Рагнар, Юлия Дуфвениус, Лена Б. Эрикссон, Анита Блом-Описание: Речь в фильме идет о молодом священнике по имени Хенрик, живущем в Стокгольме, которого преследуют ночные кошмары о его мертвой матери. Однажды, он получает весточку из отдаленной деревни, затерянной в глубоких и темных лесах Швеции, о смерти его отца, тоже священника, который странным образом утонул. Приехав в деревню Хенрик начинает собственное расследование, в финале которого он открывает ужасные тайны прошлого, и узнает о существовании истинного проявления зла, несущего смерть людям…--Качество: HQRip-AVC
Формат: MKV
Видео кодек: H264 (AVC)
Аудио кодек: AC3 (Dolby Digital)
Видео: 960 x 408, 23.976 fps, 1 735 Kbps
Аудио #1: 48.0 KHz, 6 ch, 384 Kbps-

MediaInfo

General
Unique ID : 252956654819346105021079574363047053678 (0xBE4DADFB3D4F7DC281058CE88779C96E)
Complete name : Псалом 21.2009.mkv
Format : Matroska
Format version : Version 2
File size : 1.45 GiB
Duration : 1h 38mn
Overall bit rate : 2 120 Kbps
Encoded date : UTC 2011-07-14 17:15:52
Writing application : mkvmerge v4.6.0 ('Still Crazy After All These Years') сборка от Apr 1 2011 21:01:49
Writing library : libebml v1.2.0 + libmatroska v1.1.0
Video
ID : 1
Format : AVC
Format/Info : Advanced Video Codec
Format profile : High@L4.1
Format settings, CABAC : Yes
Format settings, ReFrames : 8 frames
Codec ID : V_MPEG4/ISO/AVC
Duration : 1h 38mn
Bit rate : 1 735 Kbps
Width : 960 pixels
Height : 408 pixels
Display aspect ratio : 2.35:1
Frame rate : 24.000 fps
Color space : YUV
Chroma subsampling : 4:2:0
Bit depth : 8 bits
Scan type : Progressive
Bits/(Pixel*Frame) : 0.185
Stream size : 1.16 GiB (80%)
Writing library : x264 core 115 r1937 aa21558
Encoding settings : cabac=1 / ref=8 / deblock=1:-1:-1 / analyse=0x3:0x133 / me=umh / subme=9 / psy=1 / psy_rd=1.00:0.10 / mixed_ref=1 / me_range=16 / chroma_me=1 / trellis=2 / 8x8dct=1 / cqm=0 / deadzone=21,11 / fast_pskip=1 / chroma_qp_offset=-3 / threads=6 / sliced_threads=0 / nr=0 / decimate=1 / interlaced=0 / bluray_compat=0 / constrained_intra=0 / bframes=3 / b_pyramid=2 / b_adapt=2 / b_bias=0 / direct=3 / weightb=1 / open_gop=0 / weightp=2 / keyint=250 / keyint_min=23 / scenecut=40 / intra_refresh=0 / rc_lookahead=60 / rc=2pass / mbtree=1 / bitrate=1735 / ratetol=1.0 / qcomp=0.60 / qpmin=0 / qpmax=69 / qpstep=4 / cplxblur=20.0 / qblur=0.5 / ip_ratio=1.40 / aq=1:1.00
Default : Yes
Forced : No
Audio
ID : 2
Format : AC-3
Format/Info : Audio Coding 3
Mode extension : CM (complete main)
Format settings, Endianness : Big
Codec ID : A_AC3
Duration : 1h 38mn
Bit rate mode : Constant
Bit rate : 384 Kbps
Channel(s) : 6 channels
Channel positions : Front: L C R, Side: L R, LFE
Sampling rate : 48.0 KHz
Bit depth : 16 bits
Compression mode : Lossy
Stream size : 270 MiB (18%)
Default : Yes
Forced : No

Скриншоты

[Торрент-статистика]
[Профиль]  [ЛС] 
Показать сообщения:    
Ответить на тему

Текущее время: Сегодня 02:03

Часовой пояс: GMT + 4



Вы не можете начинать темы
Вы не можете отвечать на сообщения
Вы не можете редактировать свои сообщения
Вы не можете удалять свои сообщения
Вы не можете голосовать в опросах
Вы не можете прикреплять файлы к сообщениям
Вы не можете скачивать файлы