Буги-вуги / Boogie Woogie (Дункан Уорд) [2009, Драма, комедия, HQRip-AVC][Лицензия]

Ответить на тему
 
Автор
Сообщение

diim ®

Пол:

Стаж: 3 года 5 месяцев

Сообщений: 1035

Репутация: 112 [+] [-]

Пост 11-Сен-2012 22:36

[Цитировать] 

Буги-вуги / Boogie Woogie Год выпуска: 2009
Страна: Великобритания
Слоган: «Seduction. Betrayal. Death. There's an Art to Everything.»
Жанр: Драма, комедия
Продолжительность: 01:34:26
Перевод: Профессиональный (многоголосый закадровый) Лицензия-Режиссёр: Дункан Уорд
В ролях: Аманда Сэйфрид, Джиллиан Андерсон, Хэзер Грэм, Дэнни Хьюстон, Алан Камминг, Джек Хьюстон, Кристофер Ли, Джоанна Ламли, Саймон МакБерни, Шарлотта Рэмплинг, Джемма Эткинсон-Описание: Владелец галереи современного искусства Арт Спиндл горит желанием купить картину «Буги-вуги». Это полотно украшает дом Альфреда Ринегольда, который не желает его продавать ни за какие деньги. Помимо Спиндла, на «Буги-вуги» положил глаз еще один коллекционер. Желающих купить шедевр немало, и всех их связывают непростые личные отношения…--Качество: HQRip-AVC
Формат: MKV
Видео кодек: H264 (AVC)
Аудио кодек: AC3 (Dolby Digital)
Видео: 864x464, 23.976 fps, 1 769 Kbps
Аудио #1: 48.0 KHz, 6 ch, 448 Kbps
Субтитры: Английские-

MediaInfo

General
Unique ID : 204835337561145044509319958368088755155 (0x9A19D9DCF4AE27E291CCD573B72C0BD3)
Complete name : Буги-Вуги.2009.mkv
Format : Matroska
Format version : Version 1
File size : 1.46 GiB
Duration : 1h 34mn
Overall bit rate : 2 210 Kbps
Movie name : Буги-Вуги / Boogie Woogie (2009) HDRip-AVC
Encoded date : UTC 2010-12-26 06:34:00
Writing application : mkvmerge v2.3.0 ('Freak U') built on Sep 8 2008 18:32:16
Writing library : libebml v0.7.7 + libmatroska v0.8.1
Video
ID : 1
Format : AVC
Format/Info : Advanced Video Codec
Format profile : High@L3.0
Format settings, CABAC : Yes
Format settings, ReFrames : 4 frames
Codec ID : V_MPEG4/ISO/AVC
Duration : 1h 34mn
Bit rate : 1 769 Kbps
Width : 864 pixels
Height : 464 pixels
Display aspect ratio : 1.85:1
Frame rate : 23.976 fps
Color space : YUV
Chroma subsampling : 4:2:0
Bit depth : 8 bits
Scan type : Progressive
Bits/(Pixel*Frame) : 0.184
Stream size : 1.13 GiB (78%)
Writing library : x264 core 108 r1790bm 8eaf8a6
Encoding settings : cabac=1 / ref=1 / deblock=1:0:0 / analyse=0x3:0x113 / me=hex / subme=2 / psy=1 / psy_rd=0.00:0.00 / mixed_ref=0 / me_range=16 / chroma_me=1 / trellis=0 / 8x8dct=1 / cqm=0 / deadzone=21,11 / fast_pskip=1 / chroma_qp_offset=0 / threads=1 / sliced_threads=0 / nr=0 / decimate=1 / interlaced=0 / constrained_intra=0 / bframes=3 / b_pyramid=2 / b_adapt=1 / b_bias=0 / direct=1 / weightb=1 / open_gop=0 / weightp=0 / keyint=250 / keyint_min=23 / scenecut=40 / intra_refresh=0 / rc_lookahead=10 / rc=2pass / mbtree=1 / bitrate=1769 / ratetol=1.0 / qcomp=0.60 / qpmin=10 / qpmax=51 / qpstep=4 / cplxblur=20.0 / qblur=0.5 / ip_ratio=1.40 / aq=1:1.00
Language : English
Default : Yes
Forced : No
Audio
ID : 2
Format : AC-3
Format/Info : Audio Coding 3
Mode extension : CM (complete main)
Format settings, Endianness : Big
Codec ID : A_AC3
Duration : 1h 34mn
Bit rate mode : Constant
Bit rate : 448 Kbps
Channel(s) : 6 channels
Channel positions : Front: L C R, Side: L R, LFE
Sampling rate : 48.0 KHz
Bit depth : 16 bits
Compression mode : Lossy
Stream size : 303 MiB (20%)
Language : Russian
Default : Yes
Forced : No
Text #1
ID : 3
Format : UTF-8
Codec ID : S_TEXT/UTF8
Codec ID/Info : UTF-8 Plain Text
Language : English
Default : Yes
Forced : No
Text #2
ID : 4
Format : UTF-8
Codec ID : S_TEXT/UTF8
Codec ID/Info : UTF-8 Plain Text
Language : English
Default : No
Forced : No

Скриншоты

[Торрент-статистика]
[Профиль]  [ЛС] 
Показать сообщения:    
Ответить на тему

Текущее время: Сегодня 10:08

Часовой пояс: GMT + 4



Вы не можете начинать темы
Вы не можете отвечать на сообщения
Вы не можете редактировать свои сообщения
Вы не можете удалять свои сообщения
Вы не можете голосовать в опросах
Вы не можете прикреплять файлы к сообщениям
Вы не можете скачивать файлы