После секса / After Sex (Эрик Амадио) [2007, Драма, комедия, HQRip-AVC]

Ответить на тему
 
Автор
Сообщение

diim ®

Пол:

Стаж: 3 года 3 месяца

Сообщений: 1035

Репутация: 112 [+] [-]

Пост 18-Июл-2012 13:41

[Цитировать] 

После сексаAfter SexГод выпуска: 2007
Страна: США
Слоган: «Nine couples. One conversation.»
Жанр: Драма, комедия
Продолжительность: 01:17:08
Перевод: Авторский одноголосый (Андрей Дольский)-Режиссёр: Эрик Амадио
В ролях: Марк Блукас, Хосе Пабло Кантилльо, Эммануэль Шрики, Джеймс ДеБелло, Ноэль Фишер, Дэйв Франко, Мила Кунис, Тэрин Мэннинг, Натали Марстон, Жанетт О’Коннор-Описание: Острая комедия отношений, которая использует секс как фон, чтобы исследовать человеческие эмоции через доверие и уязвимость. Это — юмористический и честный взгляд на сложность современных повседневных отношений.--Качество: HQRip-AVC
Формат: MKV
Видео кодек: H264 (AVC)
Аудио кодек: AC3 (Dolby Digital)
Видео: 896*504, 25.000 fps, 2 504 Kbps
Аудио #1: 48.0 KHz, 2 ch, 192 Kbps-

MediaInfo

General
Unique ID : 218233491773865547586531749272509771499 (0xA42E3DDDECA43AD3B8ACF305854C6EEB)
Complete name : После секса.2007.mkv
Format : Matroska
Format version : Version 2
File size : 1.45 GiB
Duration : 1h 17mn
Overall bit rate : 2 697 Kbps
Encoded date : UTC 2011-11-15 11:39:56
Writing application : mkvmerge v4.6.0 ('Still Crazy After All These Years') сборка от Apr 1 2011 21:01:49
Writing library : libebml v1.2.0 + libmatroska v1.1.0
Video
ID : 1
Format : AVC
Format/Info : Advanced Video Codec
Format profile : High@L4.1
Format settings, CABAC : Yes
Format settings, ReFrames : 4 frames
Codec ID : V_MPEG4/ISO/AVC
Duration : 1h 17mn
Bit rate : 2 504 Kbps
Width : 896 pixels
Height : 504 pixels
Display aspect ratio : 16:9
Frame rate : 25.000 fps
Color space : YUV
Chroma subsampling : 4:2:0
Bit depth : 8 bits
Scan type : Progressive
Bits/(Pixel*Frame) : 0.222
Stream size : 1.32 GiB (91%)
Writing library : x264 core 115 r1937 aa21558
Encoding settings : cabac=1 / ref=3 / deblock=1:-1:-1 / analyse=0x3:0x113 / me=hex / subme=7 / psy=1 / psy_rd=1.00:0.10 / mixed_ref=1 / me_range=16 / chroma_me=1 / trellis=1 / 8x8dct=1 / cqm=0 / deadzone=21,11 / fast_pskip=1 / chroma_qp_offset=-3 / threads=6 / sliced_threads=0 / nr=0 / decimate=1 / interlaced=0 / bluray_compat=0 / constrained_intra=0 / bframes=3 / b_pyramid=2 / b_adapt=1 / b_bias=0 / direct=3 / weightb=1 / open_gop=0 / weightp=2 / keyint=250 / keyint_min=25 / scenecut=40 / intra_refresh=0 / rc_lookahead=40 / rc=2pass / mbtree=1 / bitrate=2504 / ratetol=1.0 / qcomp=0.60 / qpmin=0 / qpmax=69 / qpstep=4 / cplxblur=20.0 / qblur=0.5 / ip_ratio=1.40 / aq=1:1.00
Default : Yes
Forced : No
Audio
ID : 2
Format : AC-3
Format/Info : Audio Coding 3
Mode extension : CM (complete main)
Format settings, Endianness : Big
Codec ID : A_AC3
Duration : 1h 17mn
Bit rate mode : Constant
Bit rate : 192 Kbps
Channel(s) : 2 channels
Channel positions : Front: L R
Sampling rate : 48.0 KHz
Bit depth : 16 bits
Compression mode : Lossy
Stream size : 106 MiB (7%)
Default : Yes
Forced : No

Скриншоты

[Торрент-статистика]
[Профиль]  [ЛС] 
Показать сообщения:    
Ответить на тему

Текущее время: Сегодня 01:45

Часовой пояс: GMT + 4



Вы не можете начинать темы
Вы не можете отвечать на сообщения
Вы не можете редактировать свои сообщения
Вы не можете удалять свои сообщения
Вы не можете голосовать в опросах
Вы не можете прикреплять файлы к сообщениям
Вы не можете скачивать файлы