Ниндзя-убийца / Ninja Assassin (Джеймс МакТиг) [2009, Боевик, триллер, HQRip-AVC]

Ответить на тему
 
Автор
Сообщение

diim ®

Пол:

Стаж: 3 года 2 месяца

Сообщений: 1035

Репутация: 112 [+] [-]

Пост 01-Май-2012 08:10

[Цитировать] 

Ниндзя-убийцаNinja Assassin Год выпуска: 2009
Страна: США, Германия
Слоган: «Бойся не оружия, а того, кто им владеет.»
Жанр: Боевик, триллер
Продолжительность: 01:38:40
Перевод: Профессиональный (дубляж)-Режиссёр: Джеймс МакТиг
В ролях: Сё Косуги, Санг Кенг, Рэндолл Дак Ким, Джонатан Чан-Пинсли, Юки Ивамото, Илл-Юнг Ким, Бен Майлз, Наоми Харрис, Рэйн, Стивен Маркус, Лин Дэн Пэм-Описание: Рейзо — один из самых опасных убийц-ниндзя в мире. Еще ребенком его превратили в профессионального убийцу члены клана «Озуну» — секретной организации, чье существование до сих пор считалось выдумкой. Рейзо, преследуемый муками совести из-за беспощадного убийства своего друга кланом Озуну, сбегает от своих. Но тайные кланы не отпускают «своих» просто так…--Качество: HQRip-AVC
Формат: MKV
Видео кодек: H264 (AVC)
Аудио кодек: AC3 (Dolby Digital)
Видео: 1 280x544, 23.976 fps, 2 571 Kbps
Аудио #1: 48.0 KHz, 6 ch, 384 Kbps [Профессиональный (дубляж)]
Субтитры: Нет-

Знаете ли Вы, что...

Продюсеры фильма братья Вачовски были очень недовольны оригинальным сценарием и за шесть недель до начала производства проекта пригласили Дж. Майкла Стравински заняться его переработкой. На всё про всё у вызванного в пожарном порядке сценариста ушло 53 часа.
Немецкий федеральный фонд кино предоставил около 9 млн долларов на съёмки фильма, что стало самой крупной его субсидией в 2008 году. Ещё 1 млн долларов был получен от региональной организации немецкой земли Бранденбург.
Одну из ролей в фильме должен был сыграть Колин Чоу, который после некоторых раздумий отклонил предложение, сославшись на то, что ему не подходит предложенный продюсерами персонаж.
Для роли Рэйн дополнительно накачал 10 кг мышц, сидя при этом на жесткой диете.

MediaInfo

General
Unique ID : 197757453330662275412399379075786020804 (0x94C6B33A60C80102883E6E3D77C317C4)
Complete name : Ниндзя-убийца.2009.mkv
Format : Matroska
Format version : Version 2
File size : 2.04 GiB
Duration : 1h 38mn
Overall bit rate mode : Variable
Overall bit rate : 2 955 Kbps
Encoded date : UTC 2010-06-14 15:45:42
Writing application : mkvmerge v3.0.0 ('Hang up your Hang-Ups') built on Dec 12 2009 15:20:35
Writing library : libebml v0.7.9 + libmatroska v0.8.1
Video
ID : 1
Format : AVC
Format/Info : Advanced Video Codec
Format profile : High@L4.1
Format settings, CABAC : Yes
Format settings, ReFrames : 3 frames
Codec ID : V_MPEG4/ISO/AVC
Duration : 1h 38mn
Bit rate mode : Variable
Bit rate : 2 571 Kbps
Maximum bit rate : 17.5 Mbps
Width : 1 280 pixels
Height : 544 pixels
Display aspect ratio : 2.35:1
Original display aspect ratio : 2.35:1
Frame rate : 23.976 fps
Color space : YUV
Chroma subsampling : 4:2:0
Bit depth : 8 bits
Scan type : Progressive
Bits/(Pixel*Frame) : 0.154
Stream size : 1.73 GiB (85%)
Title : Ниндзя-убийца.
Writing library : x264 core 96 r1613 81e75e9
Encoding settings : cabac=1 / ref=1 / deblock=1:0:0 / analyse=0x3:0x3 / me=dia / subme=1 / psy=1 / psy_rd=0.00:0.00 / mixed_ref=0 / me_range=16 / chroma_me=1 / trellis=0 / 8x8dct=1 / cqm=0 / deadzone=21,11 / fast_pskip=1 / chroma_qp_offset=0 / threads=6 / sliced_threads=0 / slices=4 / nr=0 / decimate=1 / interlaced=0 / constrained_intra=0 / bframes=3 / b_pyramid=1 / b_adapt=1 / b_bias=0 / direct=1 / weightb=1 / weightp=0 / keyint=24 / keyint_min=1 / scenecut=40 / intra_refresh=0 / rc_lookahead=24 / rc=abr / mbtree=0 / bitrate=2571 / ratetol=1.0 / qcomp=0.60 / qpmin=0 / qpmax=51 / qpstep=4 / vbv_maxrate=17500 / vbv_bufsize=14500 / ip_ratio=1.10 / pb_ratio=1.10 / aq=1:1.00 / nal_hrd=vbr
Language : Russian
Default : Yes
Forced : No
Audio
ID : 2
Format : AC-3
Format/Info : Audio Coding 3
Mode extension : CM (complete main)
Codec ID : A_AC3
Duration : 1h 38mn
Bit rate mode : Constant
Bit rate : 384 Kbps
Channel(s) : 6 channels
Channel positions : Front: L C R, Side: L R, LFE
Sampling rate : 48.0 KHz
Bit depth : 16 bits
Compression mode : Lossy
Delay relative to video : 937ms
Stream size : 271 MiB (13%)
Title : Дублированный
Language : Russian
Default : Yes
Forced : No

Скриншоты

[Торрент-статистика]
[Профиль]  [ЛС] 

Ursanu

Пол:

Стаж: 6 лет 3 месяца

Сообщений: 10

Репутация: 0 [+] [-]

Пост 01-Май-2012 10:08 (спустя 1 час 57 минут)

[Цитировать] 

Большое Спасибо !!!!!!!!!!!!!!!!!! ay ay ay

_________________
зубник
[Торрент-статистика]
[Профиль]  [ЛС] 
Показать сообщения:    
Ответить на тему

Текущее время: Сегодня 05:37

Часовой пояс: GMT + 4



Вы не можете начинать темы
Вы не можете отвечать на сообщения
Вы не можете редактировать свои сообщения
Вы не можете удалять свои сообщения
Вы не можете голосовать в опросах
Вы не можете прикреплять файлы к сообщениям
Вы не можете скачивать файлы