Игры обречённых / Cornered! (Дэниэл Мазе) [2009, Ужасы, комедия, HQRip-AVC]

Ответить на тему
 
Автор
Сообщение

diim ®

Пол:

Стаж: 3 года 2 месяца

Сообщений: 1035

Репутация: 112 [+] [-]

Пост 20-Апр-2012 07:56

[Цитировать] 

Игры обречённыхCornered! Год выпуска: 2009
Страна: США
Слоган: «During their nightly card game a group of lowlifes are terrorized in their own convenience store by a masked killer.»
Жанр: Ужасы, комедия
Продолжительность: 01:26:23
Перевод: Профессиональный (многоголосый закадровый)-Режиссёр: Дэниэл Мазе
В ролях: Стив Гуттенберг, Джеймс Дювал, Питер Стори, Элизабет Николь, Эдуардо Антонио Гарсиа, Эллиа Инглиш, Дэвид Басила, Дэвид Жан Томас, Энни МакНайт-Описание: Неизвестный убийца держит в ужасе весь город. Уже несколько недель полиция, мобилизовав все силы, ищет неуловимого маньяка. Но на местах преступлений нет улик, а лишь зверски обезображенные трупы.
Превращая каждое убийство в жуткое театральное зрелище, жестокий преступник выбирает все новые и новые жертвы. И единственная надежда полиции — вычислить связь между жертвами, чтобы найти следующую цель маньяка и спасти город от кровавого террора…--Качество: HQRip-AVC
Формат: MKV
Видео кодек: H264 (AVC)
Аудио кодек: AC3 (Dolby Digital)
Видео: 1 280x720, 23.976 fps, 2 843 Kbps
Аудио #1: 48.0 KHz, 6 ch, 384 Kbps [Профессиональный (многоголосый закадровый)]
Субтитры: Русские-

MediaInfo

General
Unique ID : 214964296804156333288319767117209702336 (0xA1B89E1C4624E29985F11EF75AC28FC0)
Complete name : Игры обреченных.2008.mkv
Format : Matroska
Format version : Version 2
File size : 1.95 GiB
Duration : 1h 26mn
Overall bit rate mode : Variable
Overall bit rate : 3 238 Kbps
Encoded date : UTC 2010-05-08 23:31:47
Writing application : mkvmerge v3.0.0
Writing library : libebml v0.7.9 + libmatroska v0.8.1
Video
ID : 1
Format : AVC
Format/Info : Advanced Video Codec
Format profile : High@L4.1
Format settings, CABAC : Yes
Format settings, ReFrames : 3 frames
Codec ID : V_MPEG4/ISO/AVC
Duration : 1h 26mn
Bit rate mode : Variable
Bit rate : 2 843 Kbps
Maximum bit rate : 17.5 Mbps
Width : 1 280 pixels
Height : 720 pixels
Display aspect ratio : 16:9
Frame rate : 23.976 fps
Color space : YUV
Chroma subsampling : 4:2:0
Bit depth : 8 bits
Scan type : Progressive
Bits/(Pixel*Frame) : 0.129
Stream size : 1.68 GiB (86%)
Title : Игры обреченных.
Writing library : x264 core 92 r1523 25ca5b0
Encoding settings : cabac=1 / ref=3 / deblock=1:0:0 / analyse=0x3:0x113 / me=hex / subme=7 / psy=1 / psy_rd=1.00:0.00 / mixed_ref=1 / me_range=16 / chroma_me=1 / trellis=1 / 8x8dct=1 / cqm=0 / deadzone=21,11 / fast_pskip=1 / chroma_qp_offset=-2 / threads=6 / sliced_threads=0 / slices=4 / nr=0 / decimate=1 / interlaced=0 / constrained_intra=0 / bframes=3 / b_pyramid=1 / b_adapt=1 / b_bias=0 / direct=1 / wpredb=1 / wpredp=0 / keyint=24 / keyint_min=1 / scenecut=40 / intra_refresh=0 / rc_lookahead=24 / rc=abr / mbtree=1 / bitrate=2843 / ratetol=1.0 / qcomp=0.60 / qpmin=0 / qpmax=51 / qpstep=4 / vbv_maxrate=17500 / vbv_bufsize=14500 / ip_ratio=1.10 / aq=1:1.00 / nal_hrd=vbr
Language : English
Default : Yes
Forced : No
Audio
ID : 2
Format : AC-3
Format/Info : Audio Coding 3
Mode extension : CM (complete main)
Codec ID : A_AC3
Duration : 1h 26mn
Bit rate mode : Constant
Bit rate : 384 Kbps
Channel(s) : 6 channels
Channel positions : Front: L C R, Side: L R, LFE
Sampling rate : 48.0 KHz
Bit depth : 16 bits
Compression mode : Lossy
Stream size : 237 MiB (12%)
Title : Профессиональный многоголосый
Language : Russian
Default : Yes
Forced : No
Text
ID : 3
Format : UTF-8
Codec ID : S_TEXT/UTF8
Codec ID/Info : UTF-8 Plain Text
Title : Русские
Language : Russian
Default : Yes
Forced : No

Скриншоты

[Торрент-статистика]
[Профиль]  [ЛС] 
Показать сообщения:    
Ответить на тему

Текущее время: Сегодня 05:53

Часовой пояс: GMT + 4



Вы не можете начинать темы
Вы не можете отвечать на сообщения
Вы не можете редактировать свои сообщения
Вы не можете удалять свои сообщения
Вы не можете голосовать в опросах
Вы не можете прикреплять файлы к сообщениям
Вы не можете скачивать файлы