Мёртвая тишина. Расширенная версия / Dead Silence. Unrated (Джеймс Ван) [2007, Ужасы, HDRip]

Ответить на тему
 
Автор
Сообщение

diim ®

Пол:

Стаж: 3 года 8 месяцев

Сообщений: 1033

Репутация: 112 [+] [-]

Пост 31-Мар-2012 18:38

[Цитировать] 

Мёртвая тишина Dead SilenceРасширенная версия / Unrated
Год выпуска: 2007
Страна: США
Слоган: «Если закричишь, то умрешь.»
Жанр: Ужасы, триллер
Продолжительность: 01:31:30
Перевод: Профессиональный (многоголосый закадровый)-Режиссёр: Джеймс Ван
В ролях: Райан Квантен, Эмбер Валлетта, Донни Уолберг, Майкл Фэйрмэн, Джоан Хини, Боб Гантон, Лаура Риган, Дмитрий Чеповецкий, Джудит Робертс, Кейр Гилкрист, Стивен Тейлор, Дэвид Талбот, Стив Адамс, Шелли Петерсон-Описание: Молодая пара, Джемми и Лиза, решили начать новую жизнь в маленьком городке вдали от суеты огромных мегаполисов. Только поселившись в этой заброшенной, запустелой точке на карте, они уже устали слушать сказки о наводняющих дома призраках и всей породы нечисти, обитающей повсюду. Когда неожиданно Лиза подвергается бесчеловечному убийству, Джемми, будучи главным подозреваемым в преступлении, решает провести независимое расследование относительно её загадочной смерти.
Погружаясь в то, что он ещё недавно считал сказками, парень узнает легенду о некой Мэри, дух которой, по словам местных жителей, всё ещё бродит по пустынным улицам города. Всецело отдавшись исследованию прошлого этого места, он вскоре натыкается на самые кровеобильные подробности и навлекает на себя проклятие, которое и стало причиной смерти его супруги.--Качество: HQRip
Формат: AVI
Видео кодек: XviD
Аудио кодек: AC3 (Dolby Digital)
Видео: 720x304, 23.976 fps, 1876 kbps
Аудио #1: 48 kHz, 6 ch, 384 kbps [Профессиональный (многоголосый закадровый)]
Субтитры: Нет-

Знаете ли Вы, что...

В фильме поэма о Мэри Шоу звучит следующим образом: «Остерегайся взгляда Мэри Шоу. У неё нет детей, только куклы. Если ты когда-нибудь увидишь её в своих снах, никогда, никогда не кричи». Однако в трейлере она звучит несколько по-другому: «Остерегайся взгляда Мэри Шоу. У неё нет детей, только куклы. И если ты её увидишь, не кричи, иначе она вырвет твой язык».
В комнате со 101 куклой можно заметить на полу куклу Конструктора из «Пилы».
У персонажа Донни Уолберга точно такая же фамилия (Липтон), что и у его персонажа в минисериале «Братья по оружию».
Производство фильма было завершено за 6 месяцев и 17 дней.
Режиссёрская версия фильма длится 107 минут. Для того, чтобы получить рейтинг R, была выпущена урезанная версия длительностью 98 минут, из которой были вырезаны наиболее жестокие сцены

MediaInfo

General
Complete name : Мёртвая тишина.2007.avi
Format : AVI
Format/Info : Audio Video Interleave
File size : 1.45 GiB
Duration : 1h 31mn
Overall bit rate : 2 270 Kbps
Movie name : Myortvaya.tishina.2007.RUS.BDRip.XviD.AC3.
Writing application : VirtualDubMod 1.5.10.2 (build 2542/release)
Video
ID : 0
Format : MPEG-4 Visual
Format profile : Advanced Simple@L5
Format settings, BVOP : 1
Format settings, QPel : No
Format settings, GMC : No warppoints
Format settings, Matrix : Custom
Codec ID : XVID
Codec ID/Hint : XviD
Duration : 1h 31mn
Bit rate : 1 876 Kbps
Width : 720 pixels
Height : 304 pixels
Display aspect ratio : 2.35:1
Frame rate : 23.976 fps
Color space : YUV
Chroma subsampling : 4:2:0
Bit depth : 8 bits
Scan type : Progressive
Compression mode : Lossy
Bits/(Pixel*Frame) : 0.358
Stream size : 1.20 GiB (83%)
Writing library : XviD 1.2.1 (UTC 2008-12-04)
Audio
ID : 1
Format : AC-3
Format/Info : Audio Coding 3
Mode extension : CM (complete main)
Codec ID : 2000
Duration : 1h 31mn
Bit rate mode : Constant
Bit rate : 384 Kbps
Channel(s) : 6 channels
Channel positions : Front: L C R, Side: L R, LFE
Sampling rate : 48.0 KHz
Bit depth : 16 bits
Compression mode : Lossy
Stream size : 251 MiB (17%)
Alignment : Split accross interleaves
Interleave, duration : 42 ms (1.00 video frame)
Interleave, preload duration : 500 ms

Скриншоты

[Торрент-статистика]
[Профиль]  [ЛС] 
Показать сообщения:    
Ответить на тему

Текущее время: Сегодня 19:16

Часовой пояс: GMT + 4



Вы не можете начинать темы
Вы не можете отвечать на сообщения
Вы не можете редактировать свои сообщения
Вы не можете удалять свои сообщения
Вы не можете голосовать в опросах
Вы не можете прикреплять файлы к сообщениям
Вы не можете скачивать файлы