Яркая звезда / Bright Star (Джейн Кэмпион) [2009, Драма, биография, HQRip-AVC]

Ответить на тему
 
Автор
Сообщение

diim ®

Пол:

Стаж: 3 года 8 месяцев

Сообщений: 1033

Репутация: 112 [+] [-]

Пост 28-Мар-2012 11:02

[Цитировать] 

Яркая звезда / Bright Star Год выпуска: 2009
Страна: Франция, Великобритания, Австралия
Слоган: «First Love Burns Brightest»
Жанр: Драма, биография
Продолжительность: 01:58:59
Перевод: Профессиональный (многоголосый закадровый)-Режиссёр: Джейн Кэмпион
В ролях: Эбби Корниш, Бен Уишоу, Пол Шнайдер, Керри Фокс, Эди Мартин, Томас Броди Сэнгстер, Клоди Блейкли, Герард Монако, Антония Кэмпбелл-Хьюджес, Сэмюэл Рукин, Аманда Хейл, Сэмюэл Барнетт, Джонатан Арис, Олли Александр-Описание: Фильм рассказывает историю английского поэта Джона Китса, скончавшегося в 25-летнем возрасте от чахотки. Последние три года своей жизни Джон понимал, что постепенно угасает, и именно в это время началась его романтическая связь с девушкой Фэнни Браун.--Качество: HQRip-AVC
Формат: MKV
Видео кодек: H264 (AVC)
Аудио кодек: AC3 (Dolby Digital)
Видео: 1024x552, 24.000 fps, 2 500 Kbps
Аудио #1: 48.0 KHz, 6 ch, 384 Kbps [Профессиональный (многоголосый закадровый)]
Аудио #2: 48.0 KHz, 6 ch, 384 Kbps [Оригинальная звуковая дорожка]
Субтитры: Русские, Английские-

Знаете ли Вы, что...

Названием фильму послужила сонета Китса «Bright star, would I were stedfast as thou art», которую он написал в то время, когда был с Фанни Браун.

MediaInfo

General
Unique ID : 221153272731802438381632425206369727408 (0xA660922EB77F220FBD96BE55BC3FB3B0)
Complete name : Яркая звезда.2009.mkv
Format : Matroska
Format version : Version 2
File size : 2.77 GiB
Duration : 1h 58mn
Overall bit rate : 3 334 Kbps
Movie name : Jarkaja.zvezda.2009.x264.BDRip.(AVC)
Encoded date : UTC 2012-03-27 16:41:10
Writing application : mkvmerge v4.0.0
Writing library : libebml v1.0.0 + libmatroska v1.0.0
Video
ID : 1
Format : AVC
Format/Info : Advanced Video Codec
Format profile : High@L4.1
Format settings, CABAC : Yes
Format settings, ReFrames : 6 frames
Codec ID : V_MPEG4/ISO/AVC
Duration : 1h 58mn
Bit rate : 2 500 Kbps
Width : 1 024 pixels
Height : 552 pixels
Display aspect ratio : 1.855
Frame rate : 24.000 fps
Color space : YUV
Chroma subsampling : 4:2:0
Bit depth : 8 bits
Scan type : Progressive
Bits/(Pixel*Frame) : 0.184
Stream size : 2.02 GiB (73%)
Writing library : x264 core 116 r2074 2641b9e
Encoding settings : cabac=1 / ref=6 / deblock=1:-1:-1 / analyse=0x3:0x133 / me=umh / subme=9 / psy=1 / psy_rd=1.00:0.00 / mixed_ref=1 / me_range=32 / chroma_me=1 / trellis=2 / 8x8dct=1 / cqm=0 / deadzone=21,11 / fast_pskip=0 / chroma_qp_offset=-2 / threads=3 / sliced_threads=0 / nr=0 / decimate=1 / interlaced=0 / bluray_compat=0 / constrained_intra=0 / bframes=6 / b_pyramid=2 / b_adapt=2 / b_bias=0 / direct=3 / weightb=1 / open_gop=0 / weightp=2 / keyint=250 / keyint_min=23 / scenecut=40 / intra_refresh=0 / rc=2pass / mbtree=0 / bitrate=2500 / ratetol=1.0 / qcomp=0.60 / qpmin=10 / qpmax=51 / qpstep=4 / cplxblur=20.0 / qblur=0.5 / ip_ratio=1.40 / pb_ratio=1.30 / aq=2:1.00
Language : English
Default : No
Forced : No
Audio #1
ID : 2
Format : AC-3
Format/Info : Audio Coding 3
Mode extension : CM (complete main)
Codec ID : A_AC3
Duration : 1h 58mn
Bit rate mode : Constant
Bit rate : 384 Kbps
Channel(s) : 6 channels
Channel positions : Front: L C R, Side: L R, LFE
Sampling rate : 48.0 KHz
Bit depth : 16 bits
Compression mode : Lossy
Stream size : 327 MiB (12%)
Language : Russian
Default : Yes
Forced : No
Audio #2
ID : 3
Format : AC-3
Format/Info : Audio Coding 3
Mode extension : CM (complete main)
Codec ID : A_AC3
Duration : 1h 58mn
Bit rate mode : Constant
Bit rate : 448 Kbps
Channel(s) : 6 channels
Channel positions : Front: L C R, Side: L R, LFE
Sampling rate : 48.0 KHz
Bit depth : 16 bits
Compression mode : Lossy
Stream size : 381 MiB (13%)
Language : English
Default : No
Forced : No
Text #1
ID : 4
Format : UTF-8
Codec ID : S_TEXT/UTF8
Codec ID/Info : UTF-8 Plain Text
Language : Russian
Default : Yes
Forced : No
Text #2
ID : 5
Format : UTF-8
Codec ID : S_TEXT/UTF8
Codec ID/Info : UTF-8 Plain Text
Language : English
Default : No
Forced : No

Скриншоты

[Торрент-статистика]
[Профиль]  [ЛС] 

Муза_Поэта

Стаж: 6 лет 10 месяцев

Сообщений: 3

Репутация: 0 [+] [-]

Пост 11-Май-2012 15:22 (спустя 1 месяц 14 дней)

[Цитировать] 

Потрясающий фильм! Я от него в восторге!
[Торрент-статистика]
[Профиль]  [ЛС] 
Показать сообщения:    
Ответить на тему

Текущее время: Сегодня 12:35

Часовой пояс: GMT + 4



Вы не можете начинать темы
Вы не можете отвечать на сообщения
Вы не можете редактировать свои сообщения
Вы не можете удалять свои сообщения
Вы не можете голосовать в опросах
Вы не можете прикреплять файлы к сообщениям
Вы не можете скачивать файлы