Наутилус: Повелитель океана / 30,000 Leagues Under the Sea (Гэбриел Болонья) [2007, Фэнтези, боевик, HQRip-AVC]

Ответить на тему
 
Автор
Сообщение

diim ®

Пол:

Стаж: 3 года

Сообщений: 1035

Репутация: 112 [+] [-]

Пост 27-Мар-2012 19:27

[Цитировать] 

Наутилус: Повелитель океана / 30,000 Leagues Under the SeaГод выпуска: 2007
Страна: США
Слоган: «A New World Deep Below the Ocean ... Has Declared War on Ours.»
Жанр: Фэнтези, боевик
Продолжительность: 01:25:20
Перевод: Профессиональный (многоголосый закадровый)-Режиссёр: Гэбриел Болонья
В ролях: Лоренцо Ламас, Шон Лоулор, Натали Стоун, Ким Литтл, Виктор Дж. Спрингер, Эмилио Росо, Деклан Джойс, Майкл Тавэр, Дэмиен Паклер, Роб Филсон-Описание: Во время боевого дежурства в океане бесследно исчезла атомная подлодка. Опасность чрезвычайно велика — на борту подводного крейсера находится ядерное оружие. Если оно попадет в руки террористов, произойдет страшная катастрофа. На поиски отправляется экспедиция под командованием лейтенанта Аронакса. Но, исследуя дно, спасатели сами оказываются в плену! Капитан Немо — тайный владыка океана захватывает их субмарину. Обладая безграничной властью в морских глубинах, он намерен ни много ни мало, завоевать весь мир…--Качество: HQRip-AVC
Формат: MKV
Видео кодек: H264 (AVC)
Аудио кодек: AC3 (Dolby Digital)
Видео: 1 024x576, 23.976 fps, 2 525 Kbps
Аудио #1: 48.0 KHz, 6 ch, 384 Kbps [Профессиональный (многоголосый закадровый)]
Субтитры: Нет-

MediaInfo

General
Unique ID : 193674846839254059064253870600850644339 (0x91B46B2FF03FFD09AC311A61247E1D73)
Complete name : Наутилус.2007.mkv
Format : Matroska
Format version : Version 1
File size : 1.74 GiB
Duration : 1h 25mn
Overall bit rate : 2 912 Kbps
Encoded date : UTC 2011-03-02 13:39:51
Writing application : mkvmerge v2.4.0
Writing library : libebml v0.7.7 + libmatroska v0.8.1
Video
ID : 1
Format : AVC
Format/Info : Advanced Video Codec
Format profile : High@L4.1
Format settings, CABAC : Yes
Format settings, ReFrames : 2 frames
Codec ID : V_MPEG4/ISO/AVC
Duration : 1h 25mn
Bit rate : 2 525 Kbps
Width : 1 024 pixels
Height : 576 pixels
Display aspect ratio : 16:9
Frame rate : 23.976 fps
Color space : YUV
Chroma subsampling : 4:2:0
Bit depth : 8 bits
Scan type : Progressive
Bits/(Pixel*Frame) : 0.179
Stream size : 1.47 GiB (85%)
Writing library : x264 core 65 r999kMod cc51047
Encoding settings : cabac=1 / ref=1 / deblock=1:-3:-3 / analyse=0x3:0x113 / me=umh / subme=9 / psy_rd=1.0:0.0 / mixed_ref=0 / me_range=32 / chroma_me=1 / trellis=0 / 8x8dct=1 / cqm=0 / deadzone=21,11 / chroma_qp_offset=-2 / threads=2 / thread_queue=2 / nr=0 / decimate=1 / mbaff=0 / bframes=3 / b_pyramid=0 / b_adapt=1 / b_bias=0 / direct=0 / wpredb=0 / keyint=250 / keyint_min=25 / scenecut=40(pre) / rc=2pass / bitrate=2525 / ratetol=1.0 / qcomp=0.60 / qpmin=10 / qpmax=51 / qpstep=4 / cplxblur=20.0 / qblur=0.5 / ip_ratio=1.40 / pb_ratio=1.30 / aq=1:1.00
Default : Yes
Forced : No
Audio
ID : 2
Format : AC-3
Format/Info : Audio Coding 3
Mode extension : CM (complete main)
Codec ID : A_AC3
Duration : 1h 25mn
Bit rate mode : Constant
Bit rate : 384 Kbps
Channel(s) : 6 channels
Channel positions : Front: L C R, Side: L R, LFE
Sampling rate : 48.0 KHz
Bit depth : 16 bits
Compression mode : Lossy
Stream size : 234 MiB (13%)
Default : Yes
Forced : No

Скриншоты

[Торрент-статистика]
[Профиль]  [ЛС] 

player_z

Стаж: 5 лет 10 месяцев

Сообщений: 8

Репутация: 0 [+] [-]

Пост 08-Апр-2012 17:22 (спустя 11 дней)

[Цитировать] 

кто нибудь смотрел как фильм?
[Торрент-статистика]
[Профиль]  [ЛС] 
Показать сообщения:    
Ответить на тему

Текущее время: Сегодня 01:33

Часовой пояс: GMT + 4



Вы не можете начинать темы
Вы не можете отвечать на сообщения
Вы не можете редактировать свои сообщения
Вы не можете удалять свои сообщения
Вы не можете голосовать в опросах
Вы не можете прикреплять файлы к сообщениям
Вы не можете скачивать файлы