Новый парень моей мамы / My Mom's New Boyfriend (Джордж Галло) [2008, Боевик, комедия, HQRip-AVC]

Ответить на тему
 
Автор
Сообщение

diim ®

Пол:

Стаж: 3 года 7 месяцев

Сообщений: 1033

Репутация: 112 [+] [-]

Пост 27-Мар-2012 18:27

[Цитировать] 

Новый парень моей мамы / My Mom's New BoyfriendГод выпуска: 2008
Страна: США, Германия
Слоган: «Кажется, тебе нужна защита»
Жанр: Боевик, комедия
Продолжительность: 01:37:01
Перевод: Профессиональный (дубляж)-Режиссёр: Джордж Галло
В ролях: Антонио Бандерас, Мег Райан, Колин Хэнкс, Сэльма Блэр, Тревор Морган, Джон Вальдетеро, Эли Данкер, Том Адамс, Кит Дэвид, Энрико Колантони-Описание: Юный агент ФБР Генри, выполняя очередное задание, покидает родной дом на три года, оставляя в гордом одиночестве свою полную одинокую мамашу Марту. В следующий раз, когда он ее увидит, она уже предстанет перед ним в образе прекрасной разбитной блондинки Марти, которая намерена в последние годы уходящей молодости взять от жизни все.
И в своих стремлениях она, не зная тормозов, заводит романы направо и налево, не гнушаясь ни лысыми итальянскими поварами, ни безусыми юнцами на мотоциклах. От всего происходящего у Генри идет кругом голова, но окончательно почва уйдет у него из-под ног в тот момент, когда Марти повстречает некоего Томми, а Генри на летучке в ФБР прикажут следить за новым ухажером, ввиду широкой известности последнего в Интерполе.--Качество: HQRip-AVC
Формат: MKV
Видео кодек: H264 (AVC)
Аудио кодек: AC3 (Dolby Digital)
Видео: 928 x 384, 24.000 fps, 1 763 Kbps
Аудио #1: 48 kHz, 6 ch, 384 kbps [Профессиональный (дубляж)]
Субтитры: Нет-

MediaInfo

General
Unique ID : 255124068131213771145722152414859603273 (0xBFEF1BB54645C6129C804D5D89E9AD49)
Complete name : Новый парень моей мамы.2008.mkv
Format : Matroska
Format version : Version 2
File size : 1.45 GiB
Duration : 1h 36mn
Overall bit rate : 2 148 Kbps
Encoded date : UTC 2011-10-24 09:42:42
Writing application : mkvmerge v4.6.0
Writing library : libebml v1.2.0 + libmatroska v1.1.0
Video
ID : 1
Format : AVC
Format/Info : Advanced Video Codec
Format profile : High@L4.1
Format settings, CABAC : Yes
Format settings, ReFrames : 4 frames
Codec ID : V_MPEG4/ISO/AVC
Duration : 1h 36mn
Bit rate : 1 763 Kbps
Width : 928 pixels
Height : 384 pixels
Display aspect ratio : 2.40:1
Frame rate : 24.000 fps
Color space : YUV
Chroma subsampling : 4:2:0
Bit depth : 8 bits
Scan type : Progressive
Bits/(Pixel*Frame) : 0.206
Stream size : 1.16 GiB (80%)
Writing library : x264 core 115 r1937 aa21558
Encoding settings : cabac=1 / ref=3 / deblock=1:-1:-1 / analyse=0x3:0x113 / me=hex / subme=7 / psy=1 / psy_rd=1.00:0.10 / mixed_ref=1 / me_range=16 / chroma_me=1 / trellis=1 / 8x8dct=1 / cqm=0 / deadzone=21,11 / fast_pskip=1 / chroma_qp_offset=-3 / threads=6 / sliced_threads=0 / nr=0 / decimate=1 / interlaced=0 / bluray_compat=0 / constrained_intra=0 / bframes=3 / b_pyramid=2 / b_adapt=1 / b_bias=0 / direct=3 / weightb=1 / open_gop=0 / weightp=2 / keyint=250 / keyint_min=23 / scenecut=40 / intra_refresh=0 / rc_lookahead=40 / rc=2pass / mbtree=1 / bitrate=1763 / ratetol=1.0 / qcomp=0.60 / qpmin=0 / qpmax=69 / qpstep=4 / cplxblur=20.0 / qblur=0.5 / ip_ratio=1.40 / aq=1:1.00
Default : Yes
Forced : No
Audio
ID : 2
Format : AC-3
Format/Info : Audio Coding 3
Mode extension : CM (complete main)
Codec ID : A_AC3
Duration : 1h 36mn
Bit rate mode : Constant
Bit rate : 384 Kbps
Channel(s) : 6 channels
Channel positions : Front: L C R, Side: L R, LFE
Sampling rate : 48.0 KHz
Bit depth : 16 bits
Compression mode : Lossy
Stream size : 266 MiB (18%)
Default : Yes
Forced : No

Скриншоты

[Торрент-статистика]
[Профиль]  [ЛС] 
Показать сообщения:    
Ответить на тему

Текущее время: Сегодня 14:30

Часовой пояс: GMT + 4



Вы не можете начинать темы
Вы не можете отвечать на сообщения
Вы не можете редактировать свои сообщения
Вы не можете удалять свои сообщения
Вы не можете голосовать в опросах
Вы не можете прикреплять файлы к сообщениям
Вы не можете скачивать файлы