Удар бутылкой / Bottle Shock (Рэндолл Миллер) [2008, Драма, комедия, HQRip]

Ответить на тему
 
Автор
Сообщение

diim ®

Пол:

Стаж: 3 года

Сообщений: 1035

Репутация: 112 [+] [-]

Пост 20-Мар-2012 09:17

[Цитировать] 

Удар бутылкой / Bottle ShockГод выпуска: 2008
Страна: США
Слоган: «Based on a true story of love, victory and fermentation.»
Жанр: Драма, комедия
Продолжительность: 01:44:11
Перевод: Профессиональный (двухголосый закадровый)-Режиссёр: Рэндолл Миллер
В ролях: Крис Пайн, Алан Рикман, Билл Пуллман, Рэйчел Тейлор, Фредди Родригес, Дэннис Фарина, Элиза Душку, Мигель Сандовал, Брэдли Уитфорд, Джо Регалбуто-Описание: Фильм основан на реальных событиях. В 1976 году небольшая американская винодельня произвела фурор на конкурсе вин во Франции. Их вино в конкурсе, на котором дегустация происходила вслепую, победило, сделав Калифорнию известным мировым поставщиком вин.--Качество: HQRip
Формат: AVI
Видео кодек: XviD
Аудио кодек: AC3 (Dolby Digital)
Видео: 720x400, 25 fps, 1 526 Kbps
Аудио #1: 48 kHz, 2ch, 192 kbps [Профессиональный (двухголосый закадровый)]
Аудио #2: 48 kHz, 2ch, 192 kbps [Оригинальная звуковая дорожка]
Субтитры: Нет-

Знаете ли Вы, что...

Реальный Джим Баррет, которого в фильме играет Билл Пуллман, тоже появляется в кадре - в роли владельца виноградника, наливающего Алану Рикману вино на пробу.

MediaInfo

General
Complete name : Удар бутылкой.2008.avi
Format : AVI
Format/Info : Audio Video Interleave
File size : 1.46 GiB
Duration : 1h 44mn
Overall bit rate : 2 000 Kbps
Movie name : Udar.Butylkoj.2008
Original source form/Distribut : Bottle.Shock.2008.720p.BluRay.x264-CHD
Genre : Comedy, Drama
Comment : DVO (Elrom studio)
Video
ID : 0
Format : MPEG-4 Visual
Format profile : Advanced Simple@L5
Format settings, BVOP : 1
Format settings, QPel : No
Format settings, GMC : No warppoints
Format settings, Matrix : Default (MPEG)
Codec ID : XVID
Codec ID/Hint : XviD
Duration : 1h 44mn
Bit rate : 1 526 Kbps
Width : 720 pixels
Height : 400 pixels
Display aspect ratio : 16:9
Frame rate : 25.000 fps
Color space : YUV
Chroma subsampling : 4:2:0
Bit depth : 8 bits
Scan type : Progressive
Compression mode : Lossy
Bits/(Pixel*Frame) : 0.212
Stream size : 1.11 GiB (76%)
Writing library : XviD 1.2.1 (UTC 2008-12-04)
Audio #1
ID : 1
Format : AC-3
Format/Info : Audio Coding 3
Mode extension : CM (complete main)
Codec ID : 2000
Duration : 1h 44mn
Bit rate mode : Constant
Bit rate : 192 Kbps
Channel(s) : 2 channels
Channel positions : Front: L R
Sampling rate : 48.0 KHz
Bit depth : 16 bits
Compression mode : Lossy
Stream size : 143 MiB (10%)
Alignment : Split accross interleaves
Language : 1.
Audio #2
ID : 2
Format : AC-3
Format/Info : Audio Coding 3
Mode extension : CM (complete main)
Codec ID : 2000
Duration : 1h 44mn
Bit rate mode : Constant
Bit rate : 192 Kbps
Channel(s) : 2 channels
Channel positions : Front: L R
Sampling rate : 48.0 KHz
Bit depth : 16 bits
Compression mode : Lossy
Stream size : 143 MiB (10%)
Alignment : Aligned on interleaves

Скриншоты

[Торрент-статистика]
[Профиль]  [ЛС] 
Показать сообщения:    
Ответить на тему

Текущее время: Сегодня 01:36

Часовой пояс: GMT + 4



Вы не можете начинать темы
Вы не можете отвечать на сообщения
Вы не можете редактировать свои сообщения
Вы не можете удалять свои сообщения
Вы не можете голосовать в опросах
Вы не можете прикреплять файлы к сообщениям
Вы не можете скачивать файлы