Сдохни, Джон Такер! / John Tucker Must Die (Бетти Томас) [2006, Комедия, HQRip]

Ответить на тему
 
Автор
Сообщение

diim ®

Пол:

Стаж: 3 года 8 месяцев

Сообщений: 1033

Репутация: 112 [+] [-]

Пост 19-Мар-2012 17:03

[Цитировать] 

Сдохни, Джон Такер! / John Tucker Must DieГод выпуска: 2006
Страна: США, Канада
Слоган: «Не сходи с ума. Это не поможет.»
Жанр: Комедия
Продолжительность: 01:29:41
Перевод: Профессиональный (дубляж)-Режиссёр: Бетти Томас
В ролях: Джесси Меткалф, Бриттани Сноу, Ашанти, София Буш, Ариэль Кеббел, Пенн Бэджли, Дженни МакКарти, Фацо-Фасано, Кевин МакНалти, Патриция Дрэйк-Описание: Три бывшие подружки крутого школьного ловеласа решают ему отомстить. Для приведения жестокого плана в действие нужна приманка. Выбор падает на только что переехавшую в их школу очаровательную блондиночку…--Качество: HQRip
Формат: AVI
Видео кодек: XviD
Аудио кодек: AC3 (Dolby Digital)
Видео: 704x384, 23.976 fps, 1 864 Kbps
Аудио #1: 48.0 KHz, 6ch, 448 Kbps [Профессиональный (дубляж)]
Субтитры: Нет-

Знаете ли Вы, что...

В сцене знакомства Скотта (Пэнн Бэджли) и Кейт (Бриттани Сноу) они напевают песню «I want you to want me» группы Cheap Trick. В конце фильма мы можем услышать современную обработку этой песни.
Так как съемки проводились в обычной школе во время учебного года, съемочная команда просила разрешения студентов взять в аренду некоторые шкафчики и переоформить их на время съемок.
Съёмки фильма были сопряжены с некоторыми трудностями из-за перегруженности графиков главных актрис. К примеру, у Ашанти по контракту с звукозаписывающей студией был договор на пять концертов в поддержку нового сингла, в то время, как София Буш продолжала съёмки в сериале «Холм одного дерева».
Изначально в сценарии у школьной баскетбольной команды не было определенного названия. В ходе съёмок режиссер Бетти Томас дала команде название - «The Kodiaks».
Первоначально Кейт должна была заставить Джона Такера побрить голову. Однако в ходе съёмок было решено поменять бритье головы на примерку трусиков танга и публичное осмеяние.
Во время съемок сцены, когда Джона в трусиках танга публично осмеивают в коридоре отеля, многие актеры из массовки действительно фотографировали голого актера, данного действия не было в сценарии. Однако Бетти Томас - режиссер фильма - решила вставить заснятые кадры и фото в готовый вариант фильма.

MediaInfo

General
Complete name : Сдохни, Джон Такер!2006.avi
Format : AVI
Format/Info : Audio Video Interleave
File size : 1.45 GiB
Duration : 1h 29mn
Overall bit rate : 2 321 Kbps
Movie name : John Tucker Must Die [Theatrical Cut] (2006) BDRip
Writing application : VirtualDubMod 1.5.10.2 (build 2542/release)
Copyright : HQCLUB
Comment : 16.02.2010
Video
ID : 0
Format : MPEG-4 Visual
Format profile : Advanced Simple@L5
Format settings, BVOP : 1
Format settings, QPel : No
Format settings, GMC : No warppoints
Format settings, Matrix : Custom
Codec ID : XVID
Codec ID/Hint : XviD
Duration : 1h 29mn
Bit rate : 1 864 Kbps
Width : 704 pixels
Height : 384 pixels
Display aspect ratio : 16:9
Frame rate : 23.976 fps
Color space : YUV
Chroma subsampling : 4:2:0
Bit depth : 8 bits
Scan type : Progressive
Compression mode : Lossy
Bits/(Pixel*Frame) : 0.288
Stream size : 1.17 GiB (80%)
Writing library : XviD 64
Audio
ID : 1
Format : AC-3
Format/Info : Audio Coding 3
Mode extension : CM (complete main)
Codec ID : 2000
Duration : 1h 29mn
Bit rate mode : Constant
Bit rate : 448 Kbps
Channel(s) : 6 channels
Channel positions : Front: L C R, Side: L R, LFE
Sampling rate : 48.0 KHz
Bit depth : 16 bits
Compression mode : Lossy
Stream size : 287 MiB (19%)
Alignment : Split accross interleaves
Interleave, duration : 42 ms (1.00 video frame)
Interleave, preload duration : 500 ms

Скриншоты

[Торрент-статистика]
[Профиль]  [ЛС] 
Показать сообщения:    
Ответить на тему

Текущее время: Сегодня 18:53

Часовой пояс: GMT + 4



Вы не можете начинать темы
Вы не можете отвечать на сообщения
Вы не можете редактировать свои сообщения
Вы не можете удалять свои сообщения
Вы не можете голосовать в опросах
Вы не можете прикреплять файлы к сообщениям
Вы не можете скачивать файлы