Волшебное серебро / Julenatt i Blåfjell (Катарина Лаунинг, Роар Утхауг) [2009, Фэнтези, приключения, HQRip]

Ответить на тему
 
Автор
Сообщение

diim ®

Пол:

Стаж: 3 года 2 месяца

Сообщений: 1035

Репутация: 112 [+] [-]

Пост 26-Фев-2012 15:29

[Цитировать] 

Волшебное серебро / Julenatt i BlåfjellГод выпуска: 2009
Страна: Норвегия
Жанр: Фэнтези, приключения
Продолжительность: 01:26:23
Перевод: Профессиональный (дубляж)-Режиссёр: Катарина Лаунинг, Роар Утхауг
В ролях: Симен Баккен, Сигве Боэ, Николин Урсин Эрихсен, Лиллиан Лидерсен, Карре Хеллум, Финн Шо-Описание: Блюроуз — это принцесса царства гномов, расположенного далеко в норвежских горах. Небольшое сообщество гномов отвечает за переход между дневным светом и ночной тьмой. Этот промежуток называется волшебным часом и создается с помощью волшебного серебра, которым владеют только эти гномы. Но вот серебро украдено другими гномами и людьми, и мир погружается в вечную ночь. Принцесса Блюроуз отправляется в путь, чтобы вернуть серебро и спасти мир от вечной тьмы…--Качество: HQRip
Формат: AVI
Видео кодек: XviD
Аудио кодек: AC3 (Dolby Digital)
Видео: 720x304, 24 fps, 2208 kbps
Аудио #1: 48 kHz, 2ch, 192 kbps [Профессиональный (дубляж)]
Субтитры: Нет-

MediaInfo

General
Complete name : Волшебное серебро.2009.avi
Format : AVI
Format/Info : Audio Video Interleave
File size : 1.45 GiB
Duration : 1h 26mn
Overall bit rate : 2 410 Kbps
Writing application : VirtualDubMod 1.5.10.3
Writing library : VirtualDubMod build 2550/release
Video
ID : 0
Format : MPEG-4 Visual
Format profile : Advanced Simple@L5
Format settings, BVOP : 1
Format settings, QPel : No
Format settings, GMC : No warppoints
Format settings, Matrix : Custom
Codec ID : XVID
Codec ID/Hint : XviD
Duration : 1h 26mn
Bit rate : 2 209 Kbps
Width : 720 pixels
Height : 304 pixels
Display aspect ratio : 2.35:1
Frame rate : 24.000 fps
Color space : YUV
Chroma subsampling : 4:2:0
Bit depth : 8 bits
Scan type : Progressive
Compression mode : Lossy
Bits/(Pixel*Frame) : 0.420
Stream size : 1.33 GiB (92%)
Writing library : XviD 63
Audio
ID : 1
Format : AC-3
Format/Info : Audio Coding 3
Mode extension : CM (complete main)
Codec ID : 2000
Duration : 1h 26mn
Bit rate mode : Constant
Bit rate : 192 Kbps
Channel(s) : 2 channels
Channel positions : Front: L R
Sampling rate : 48.0 KHz
Bit depth : 16 bits
Compression mode : Lossy
Stream size : 119 MiB (8%)
Alignment : Split accross interleaves
Interleave, duration : 42 ms (1.00 video frame)
Interleave, preload duration : 500 ms

Скриншоты

[Торрент-статистика]
[Профиль]  [ЛС] 
Показать сообщения:    
Ответить на тему

Текущее время: Сегодня 05:24

Часовой пояс: GMT + 4



Вы не можете начинать темы
Вы не можете отвечать на сообщения
Вы не можете редактировать свои сообщения
Вы не можете удалять свои сообщения
Вы не можете голосовать в опросах
Вы не можете прикреплять файлы к сообщениям
Вы не можете скачивать файлы