Любимые / The Loved Ones (Шон Бирн) [2009, Ужасы, триллер, HQRip-AVC]

Ответить на тему
 
Автор
Сообщение

diim ®

Пол:

Стаж: 3 года

Сообщений: 1035

Репутация: 112 [+] [-]

Пост 19-Фев-2012 21:31

[Цитировать] 

Любимые / The Loved OnesГод выпуска: 2009
Страна: Австралия
Слоган: «You don't have to die to go to hell»
Жанр: Ужасы, триллер
Продолжительность: 01:24:05
Перевод: Любительский (одноголосый закадровый)-Режиссёр: Шон Бирн
В ролях: Ксавьер Сэмюэл, Джессика МакНэми, Робин МакЛиви, Ричард Уилсон, Виктория Тейн, Джон Брамптон, Эндрю С. Гилберт, Сьюзи Догерти-Описание: Первый красавец школы Брент Митчелл отказался идти с Лолой на выпускной. Очень зря, ибо она, с помощью своего папаши-психопата похищает Брента и устраивает свой собственный выпускной.--Качество: HQRip-AVC
Формат: MKV
Видео кодек: H264 (AVC)
Аудио кодек: AC3 (Dolby Digital)
Видео: 960 x 400, 24.000 fps, 2090 Kbps
Аудио #1: 48 kHz, 6 chch, 384 kbps [Любительский (одноголосый закадровый)] acolith
Субтитры: Нет-

MediaInfo

General
Unique ID : 211320498992974446203914191794077134670 (0x9EFAD90209A41200A07AD0457B976F4E)
Complete name : Любимые.2009.mkv
Format : Matroska
File size : 1.45 GiB
Duration : 1h 24mn
Overall bit rate : 2 475 Kbps
Encoded date : UTC 2012-01-01 01:23:58
Writing application : mkvmerge v4.6.0 сборка от Apr 1 2011 21:01:49
Writing library : libebml v1.2.0 + libmatroska v1.1.0
Video
ID : 1
Format : AVC
Format/Info : Advanced Video Codec
Format profile : High@L4.1
Format settings, CABAC : Yes
Format settings, ReFrames : 4 frames
Codec ID : V_MPEG4/ISO/AVC
Duration : 1h 24mn
Bit rate : 2 090 Kbps
Width : 960 pixels
Height : 400 pixels
Display aspect ratio : 2.40:1
Frame rate : 24.000 fps
Color space : YUV
Chroma subsampling : 4:2:0
Bit depth : 8 bits
Scan type : Progressive
Bits/(Pixel*Frame) : 0.227
Stream size : 1.20 GiB (82%)
Writing library : x264 core 115 r1937 aa21558
Encoding settings : cabac=1 / ref=3 / deblock=1:-1:-1 / analyse=0x3:0x113 / me=hex / subme=7 / psy=1 / psy_rd=1.00:0.10 / mixed_ref=1 / me_range=16 / chroma_me=1 / trellis=1 / 8x8dct=1 / cqm=0 / deadzone=21,11 / fast_pskip=1 / chroma_qp_offset=-3 / threads=6 / sliced_threads=0 / nr=0 / decimate=1 / interlaced=0 / bluray_compat=0 / constrained_intra=0 / bframes=3 / b_pyramid=2 / b_adapt=1 / b_bias=0 / direct=3 / weightb=1 / open_gop=0 / weightp=2 / keyint=250 / keyint_min=23 / scenecut=40 / intra_refresh=0 / rc_lookahead=40 / rc=2pass / mbtree=1 / bitrate=2090 / ratetol=1.0 / qcomp=0.60 / qpmin=0 / qpmax=69 / qpstep=4 / cplxblur=20.0 / qblur=0.5 / ip_ratio=1.40 / aq=1:1.00
Audio
ID : 2
Format : AC-3
Format/Info : Audio Coding 3
Mode extension : CM (complete main)
Codec ID : A_AC3
Duration : 1h 24mn
Bit rate mode : Constant
Bit rate : 384 Kbps
Channel(s) : 6 channels
Channel positions : Front: L C R, Side: L R, LFE
Sampling rate : 48.0 KHz
Bit depth : 16 bits
Compression mode : Lossy
Stream size : 231 MiB (16%)

Скриншоты

[Торрент-статистика]
[Профиль]  [ЛС] 
Показать сообщения:    
Ответить на тему

Текущее время: Сегодня 01:55

Часовой пояс: GMT + 4



Вы не можете начинать темы
Вы не можете отвечать на сообщения
Вы не можете редактировать свои сообщения
Вы не можете удалять свои сообщения
Вы не можете голосовать в опросах
Вы не можете прикреплять файлы к сообщениям
Вы не можете скачивать файлы