Мой папа псих / King of California (Майкл Кахилл) [2007, драма, комедия, HQRip-AVC] R5

Ответить на тему
 
Автор
Сообщение

diim ®

Пол:

Стаж: 3 года 6 месяцев

Сообщений: 1035

Репутация: 112 [+] [-]

Пост 11-Фев-2012 15:15

[Цитировать] 

Мой папа псих / King of California-«Мы все что-то ищем...»-Год выпуска | 2007
Страна | США
Жанр | драма ∙ комедия
Продолжительность | 01:33:20
Перевод | Профессиональный (многоголосый, закадровый) /R5/
-
Режиссер | Майкл Кахилл
Сценарий | Майкл Кахилл
Продюсер | Боаз Дэвидсон ∙ Вэнс Оуэн ∙ Джордж Парра ∙ Александр Пэйн ∙ Элиза Салинас
Оператор | Джим Уайтакер
Композитор | Дэвид Роббинс
В ролях | Майкл Дуглас (Charlie) ∙ Ивэн Рэйчел Вуд (Miranda) ∙ Уиллис Буркс II (Pepper) ∙ Лаура Качергус (Rita) ∙ Пол Либер (Doug) ∙ Кэтлин Уилхойт (Kelly) ∙ Энн Л. Натан (Applebee's Manager) ∙ Артур Сантьяго (McDonald's Manager) ∙ Эшли Грин (McDonald's Customer) ∙ Йен Хоуппс (Boy) ∙ Анна Хайа (Officer Contreras) ∙ Уилл Ротхаар (Security Guard)
-
Описание | Эксцентричный и чудаковатый Чарли бесконечно донимает свою шестнадцатилетнюю дочь Миранду, чтобы та помогла ему в поисках несметных сокровищ. Чарли уверен, что когда-то в долине Сан-Фернандо в Калифорнии испанские миссионеры зарыли кучу золотых слитков. Отец и дочь отправляются на раскопки мифического клада, но обретают там нечто большее, чем драгоценный клад...
-
kinopoisk.ru | 6.680 (1 384)
-
Сборы в США | $268 461
Сборы в мире | $1 027 699
Мировая премьера | 24 января 2007
Релиз на DVD | 28 октября 2008 ∙ «Парадиз Видео»
-
Качество | HQRip-AVC
Формат | Matroska
Видео | AVC ∙ 1024x576 (16:9) ∙ 2893 kbps ∙ 23.976 fps ∙ 0.205 bit/pixel
Аудио | AC3 ∙ 448 kbps ∙ CBR ∙ 6 channels ∙ 16 bit

MediaInfo

General
Unique ID : 237932356281637236697809696800734326155 (0xB3001ADF52BDE95D9EF77A9C874E2D8B)
Complete name : J:\releases\King.of.California.2007.HQRip-AVC.by.nimphus[R.G.KiNOvNiNO].mkv
Format : Matroska
File size : 2.18 GiB
Duration : 1h 33mn
Overall bit rate : 3 342 Kbps
Encoded date : UTC 2012-02-11 05:34:28
Writing application : mkvmerge v2.9.0 ('Moanin'') built on May 30 2009 18:55:35
Writing library : libebml v0.7.7 + libmatroska v0.8.1
Video
ID : 1
Format : AVC
Format/Info : Advanced Video Codec
Format profile : High@L3.1
Format settings, CABAC : Yes
Format settings, ReFrames : 6 frames
Format settings, GOP : M=1, N=24
Codec ID : V_MPEG4/ISO/AVC
Duration : 1h 33mn
Bit rate : 2 893 Kbps
Width : 1 024 pixels
Height : 576 pixels
Display aspect ratio : 16:9
Frame rate : 23.976 fps
Color space : YUV
Chroma subsampling : 4:2:0
Bit depth : 8 bits
Scan type : Progressive
Bits/(Pixel*Frame) : 0.205
Stream size : 1.84 GiB (85%)
Writing library : x264 core 68 r1179M 96e2229
Encoding settings : cabac=1 / ref=6 / deblock=1:0:0 / analyse=0x3:0x111 / me=umh / subme=7 / psy_rd=1.0:0.0 / mixed_ref=1 / me_range=16 / chroma_me=1 / trellis=1 / 8x8dct=1 / cqm=0 / deadzone=21,11 / chroma_qp_offset=-2 / threads=3 / nr=0 / decimate=1 / mbaff=0 / bframes=2 / b_pyramid=1 / b_adapt=1 / b_bias=0 / direct=3 / wpredb=1 / keyint=250 / keyint_min=25 / scenecut=40 / rc=2pass / bitrate=2893 / ratetol=1.0 / qcomp=0.60 / qpmin=10 / qpmax=51 / qpstep=4 / cplxblur=20.0 / qblur=0.5 / ip_ratio=1.40 / pb_ratio=1.30 / aq=1:1.00
Audio
ID : 2
Format : AC-3
Format/Info : Audio Coding 3
Mode extension : CM (complete main)
Codec ID : A_AC3
Duration : 1h 33mn
Bit rate mode : Constant
Bit rate : 448 Kbps
Channel(s) : 6 channels
Channel positions : Front: L C R, Side: L R, LFE
Sampling rate : 48.0 KHz
Bit depth : 16 bits
Compression mode : Lossy
Stream size : 299 MiB (13%)
-

Скриншоты

[Торрент-статистика]
[Профиль]  [ЛС] 
Показать сообщения:    
Ответить на тему

Текущее время: Сегодня 02:59

Часовой пояс: GMT + 4



Вы не можете начинать темы
Вы не можете отвечать на сообщения
Вы не можете редактировать свои сообщения
Вы не можете удалять свои сообщения
Вы не можете голосовать в опросах
Вы не можете прикреплять файлы к сообщениям
Вы не можете скачивать файлы