Генное поколение / The Gene Generation (Тео Пирри) [2007, Фантастика, боевик, HQRip]

Ответить на тему
 
Автор
Сообщение

diim ®

Пол:

Стаж: 3 года

Сообщений: 1035

Репутация: 112 [+] [-]

Пост 08-Фев-2012 22:41

[Цитировать] 

Генное поколение / The Gene GenerationГод выпуска: 2007
Страна: США
Слоган: «The Future of Science and Crime.»
Жанр: Фантастика, боевик
Продолжительность: 01:31:39
Перевод: Профессиональный (многоголосый закадровый)-Режиссёр: Тео Пирри
В ролях: Бай Лин, Алек Ньюман, Парри Шен, Фэй Данауэй, Этан Кон, Роберт Дэвид Холл, Майкл Шамус Уайлз, Дэниэл Зацапа, Эрин Лэйн, Джефф Имада, Эллисон Данбар-Описание: В картине пойдет речь о мрачном декадентском мире будущего, в котором человечество оказалось на грани вымирания и оставшиеся люди проживают в последнем городе Olympia на Земле, вокруг которого возведена высокая защитная стена. Правительство проводит эксперименты с человеческими ДНК и геномами, а также проводит селекцию наиболее сильных и здоровых граждан, которые должны будут составить население нового, биологически чистого города Demeter.
Действующая в городе подпольная группировка ДНК-хакеров занимается воровством новых генов и пытается обмануть правительственных селекционеров. Тем временем правительство нанимает отряд безжалостных киллеров и поручает им убить всех хакеров, загрязняющих плохими ДНК жителей города. В качестве награды киллерам гарантируется пропуск в новый город Demeter.--Качество: HQRip
Формат: AVI
Видео кодек: XviD
Аудио кодек: AC3 (Dolby Digital)
Видео: 720x400, 25 fps, 1795 kbps avg
Аудио #1: 48 kHz, 6 channels, 448.00 kbps avg [Профессиональный (многоголосый закадровый)] лицензия
Субтитры: Нет-

MediaInfo

General
Complete name : Gennoe.pokolenie.2007.avi
Format : AVI
Format/Info : Audio Video Interleave
File size : 1.44 GiB
Duration : 1h 31mn
Overall bit rate : 2 253 Kbps
Movie name : Поколение ген / The Gene Generation
Director : zim2001
Writing application : VirtualDubMod 1.5.10.2 (build 2540/release)
Writing library : VirtualDubMod build 2540/release
Copyright : torrents.ru
Video
ID : 0
Format : MPEG-4 Visual
Format profile : Advanced Simple@L5
Format settings, BVOP : 1
Format settings, QPel : No
Format settings, GMC : No warppoints
Format settings, Matrix : Custom
Codec ID : XVID
Codec ID/Hint : XviD
Duration : 1h 31mn
Bit rate : 1 795 Kbps
Width : 720 pixels
Height : 400 pixels
Display aspect ratio : 16:9
Frame rate : 25.000 fps
Original frame rate : 23.976 fps
Color space : YUV
Chroma subsampling : 4:2:0
Bit depth : 8 bits
Scan type : Progressive
Compression mode : Lossy
Bits/(Pixel*Frame) : 0.249
Stream size : 1.15 GiB (80%)
Writing library : XviD 1.2.1 (UTC 2008-12-04)
Audio
ID : 1
Format : AC-3
Format/Info : Audio Coding 3
Mode extension : CM (complete main)
Codec ID : 2000
Duration : 1h 31mn
Bit rate mode : Constant
Bit rate : 448 Kbps
Channel(s) : 6 channels
Channel positions : Front: L C R, Side: L R, LFE
Sampling rate : 48.0 KHz
Bit depth : 16 bits
Compression mode : Lossy
Stream size : 294 MiB (20%)
Alignment : Split accross interleaves
Interleave, duration : 40 ms (1.00 video frame)
Interleave, preload duration : 500 ms

Скриншоты

[Торрент-статистика]
[Профиль]  [ЛС] 
Показать сообщения:    
Ответить на тему

Текущее время: Сегодня 23:38

Часовой пояс: GMT + 4



Вы не можете начинать темы
Вы не можете отвечать на сообщения
Вы не можете редактировать свои сообщения
Вы не можете удалять свои сообщения
Вы не можете голосовать в опросах
Вы не можете прикреплять файлы к сообщениям
Вы не можете скачивать файлы